<?xml version="1.0" standalone="no"?>
<!DOCTYPE svg PUBLIC "-//W3C//DTD SVG 1.1//EN" "http://www.w3.org/Graphics/SVG/1.1/DTD/svg11.dtd" >
<svg xmlns="http://www.w3.org/2000/svg">
<metadata>Generated by IcoMoon</metadata>
<defs>
<font id="Unicons" horiz-adv-x="1024">
<font-face units-per-em="1024" ascent="960" descent="-64" />
<missing-glyph horiz-adv-x="1024" />
<glyph unicode="&#x20;" horiz-adv-x="512" d="" />
<glyph unicode="&#xe900;" glyph-name="plus" d="M768 746.667h42.667v-42.667c0-23.564 19.103-42.667 42.667-42.667s42.667 19.103 42.667 42.667v0 42.667h42.667c23.564 0 42.667 19.103 42.667 42.667s-19.103 42.667-42.667 42.667v0h-42.667v42.667c0 23.564-19.103 42.667-42.667 42.667s-42.667-19.103-42.667-42.667v0-42.667h-42.667c-23.564 0-42.667-19.103-42.667-42.667s19.103-42.667 42.667-42.667v0zM533.333 704h-42.667c-70.692 0-128-57.308-128-128v0-256c0-70.692 57.308-128 128-128v0h42.667c70.692 0 128 57.308 128 128v0 256c0 70.692-57.308 128-128 128v0zM576 320c0-23.564-19.103-42.667-42.667-42.667v0h-42.667c-23.564 0-42.667 19.103-42.667 42.667v0 256c0 23.564 19.103 42.667 42.667 42.667v0h42.667c23.564 0 42.667-19.103 42.667-42.667v0zM921.6 576c-19.619-4.105-34.143-21.26-34.143-41.807 0-3.023 0.314-5.973 0.912-8.818l-0.049 0.278c5.017-23.281 7.89-50.026 7.89-77.443 0-212.077-171.923-384-384-384s-384 171.923-384 384c0 212.077 171.923 384 384 384 27.417 0 54.162-2.873 79.952-8.335l-2.509 0.445c2.565-0.537 5.513-0.845 8.533-0.845 24.031 0 43.512 19.481 43.512 43.512 0 21.011-14.892 38.544-34.697 42.618l-0.281 0.048c-25.377 4.959-54.558 7.796-84.401 7.796-3.629 0-7.247-0.042-10.856-0.125l0.537 0.010c-259.206 0-469.333-210.128-469.333-469.333s210.128-469.333 469.333-469.333c259.206 0 469.333 210.128 469.333 469.333v0c0.001 0.393 0.002 0.858 0.002 1.323 0 32.761-3.419 64.723-9.919 95.55l0.531-3.006c-3.773 20.022-21.125 34.965-41.966 34.965-2.966 0-5.861-0.303-8.657-0.879l0.276 0.047z" />
<glyph unicode="&#xe901;" glyph-name="plus1" d="M768 746.667h42.667v-42.667c0-23.564 19.103-42.667 42.667-42.667s42.667 19.103 42.667 42.667v0 42.667h42.667c23.564 0 42.667 19.103 42.667 42.667s-19.103 42.667-42.667 42.667v0h-42.667v42.667c0 23.564-19.103 42.667-42.667 42.667s-42.667-19.103-42.667-42.667v0-42.667h-42.667c-23.564 0-42.667-19.103-42.667-42.667s19.103-42.667 42.667-42.667v0zM661.333 576c0 70.692-57.308 128-128 128v0h-42.667c-70.692 0-128-57.308-128-128v0c0-23.564 19.103-42.667 42.667-42.667s42.667 19.103 42.667 42.667v0c0 23.564 19.103 42.667 42.667 42.667v0h42.667c23.564 0 42.667-19.103 42.667-42.667v0-42.667c0-23.564-19.103-42.667-42.667-42.667v0h-21.333c-23.564 0-42.667-19.103-42.667-42.667s19.103-42.667 42.667-42.667v0h21.333c23.564 0 42.667-19.103 42.667-42.667v0-42.667c0-23.564-19.103-42.667-42.667-42.667v0h-42.667c-23.564 0-42.667 19.103-42.667 42.667v0c0 23.564-19.103 42.667-42.667 42.667s-42.667-19.103-42.667-42.667v0c0-70.692 57.308-128 128-128v0h42.667c70.692 0 128 57.308 128 128v0 42.667c-0.203 32.927-12.807 62.872-33.371 85.435l0.091-0.102c20.473 22.461 33.077 52.406 33.28 85.292v0.041zM921.6 576c-19.619-4.105-34.143-21.26-34.143-41.807 0-3.023 0.314-5.973 0.912-8.818l-0.049 0.278c5.017-23.281 7.89-50.026 7.89-77.443 0-212.077-171.923-384-384-384s-384 171.923-384 384c0 212.077 171.923 384 384 384 27.417 0 54.162-2.873 79.952-8.335l-2.509 0.445c2.565-0.537 5.513-0.845 8.533-0.845 24.031 0 43.512 19.481 43.512 43.512 0 21.011-14.892 38.544-34.697 42.618l-0.281 0.048c-25.377 4.959-54.558 7.796-84.401 7.796-3.629 0-7.247-0.042-10.856-0.125l0.537 0.010c-259.206 0-469.333-210.128-469.333-469.333s210.128-469.333 469.333-469.333c259.206 0 469.333 210.128 469.333 469.333v0c0.001 0.393 0.002 0.858 0.002 1.323 0 32.761-3.419 64.723-9.919 95.55l0.531-3.006c-3.773 20.022-21.125 34.965-41.966 34.965-2.966 0-5.861-0.303-8.657-0.879l0.276 0.047z" />
<glyph unicode="&#xe902;" glyph-name="plus2" d="M768 746.667h42.667v-42.667c0-23.564 19.103-42.667 42.667-42.667s42.667 19.103 42.667 42.667v0 42.667h42.667c23.564 0 42.667 19.103 42.667 42.667s-19.103 42.667-42.667 42.667v0h-42.667v42.667c0 23.564-19.103 42.667-42.667 42.667s-42.667-19.103-42.667-42.667v0-42.667h-42.667c-23.564 0-42.667-19.103-42.667-42.667s19.103-42.667 42.667-42.667v0zM490.667 618.667h42.667c23.564 0 42.667-19.103 42.667-42.667v0c0-23.564 19.103-42.667 42.667-42.667s42.667 19.103 42.667 42.667v0c0 70.692-57.308 128-128 128v0h-42.667c-70.692 0-128-57.308-128-128v0-256c0-70.692 57.308-128 128-128v0h42.667c70.692 0 128 57.308 128 128v0 42.667c0 70.692-57.308 128-128 128v0h-85.333v85.333c0 23.564 19.103 42.667 42.667 42.667v0zM533.333 405.333c23.564 0 42.667-19.103 42.667-42.667v0-42.667c0-23.564-19.103-42.667-42.667-42.667v0h-42.667c-23.564 0-42.667 19.103-42.667 42.667v0 85.333zM921.6 576c-19.619-4.105-34.143-21.26-34.143-41.807 0-3.023 0.314-5.973 0.912-8.818l-0.049 0.278c5.017-23.281 7.89-50.026 7.89-77.443 0-212.077-171.923-384-384-384s-384 171.923-384 384c0 212.077 171.923 384 384 384 27.417 0 54.162-2.873 79.952-8.335l-2.509 0.445c2.565-0.537 5.513-0.845 8.533-0.845 24.031 0 43.512 19.481 43.512 43.512 0 21.011-14.892 38.544-34.697 42.618l-0.281 0.048c-25.377 4.959-54.558 7.796-84.401 7.796-3.629 0-7.247-0.042-10.856-0.125l0.537 0.010c-259.206 0-469.333-210.128-469.333-469.333s210.128-469.333 469.333-469.333c259.206 0 469.333 210.128 469.333 469.333v0c0.001 0.393 0.002 0.858 0.002 1.323 0 32.761-3.419 64.723-9.919 95.55l0.531-3.006c-3.773 20.022-21.125 34.965-41.966 34.965-2.966 0-5.861-0.303-8.657-0.879l0.276 0.047z" />
<glyph unicode="&#xe903;" glyph-name="plus3" d="M768 746.667h42.667v-42.667c0-23.564 19.103-42.667 42.667-42.667s42.667 19.103 42.667 42.667v0 42.667h42.667c23.564 0 42.667 19.103 42.667 42.667s-19.103 42.667-42.667 42.667v0h-42.667v42.667c0 23.564-19.103 42.667-42.667 42.667s-42.667-19.103-42.667-42.667v0-42.667h-42.667c-23.564 0-42.667-19.103-42.667-42.667s19.103-42.667 42.667-42.667v0zM469.333 576v-256c0-70.692 57.308-128 128-128v0h42.667c70.692 0 128 57.308 128 128v0 256c0 70.692-57.308 128-128 128v0h-42.667c-70.692 0-128-57.308-128-128v0zM682.667 576v-256c0-23.564-19.103-42.667-42.667-42.667v0h-42.667c-23.564 0-42.667 19.103-42.667 42.667v0 256c0 23.564 19.103 42.667 42.667 42.667v0h42.667c23.564 0 42.667-19.103 42.667-42.667v0zM921.6 576c-19.619-4.105-34.143-21.26-34.143-41.807 0-3.023 0.314-5.973 0.912-8.818l-0.049 0.278c5.017-23.281 7.89-50.026 7.89-77.443 0-212.077-171.923-384-384-384s-384 171.923-384 384c0 212.077 171.923 384 384 384 27.417 0 54.162-2.873 79.952-8.335l-2.509 0.445c2.565-0.537 5.513-0.845 8.533-0.845 24.031 0 43.512 19.481 43.512 43.512 0 21.011-14.892 38.544-34.697 42.618l-0.281 0.048c-25.377 4.959-54.558 7.796-84.401 7.796-3.629 0-7.247-0.042-10.856-0.125l0.537 0.010c-259.206 0-469.333-210.128-469.333-469.333s210.128-469.333 469.333-469.333c259.206 0 469.333 210.128 469.333 469.333v0c0.001 0.393 0.002 0.858 0.002 1.323 0 32.761-3.419 64.723-9.919 95.55l0.531-3.006c-3.773 20.022-21.125 34.965-41.966 34.965-2.966 0-5.861-0.303-8.657-0.879l0.276 0.047zM298.667 661.333v-426.667c0-23.564 19.103-42.667 42.667-42.667s42.667 19.103 42.667 42.667v0 426.667c0 23.564-19.103 42.667-42.667 42.667s-42.667-19.103-42.667-42.667v0z" />
<glyph unicode="&#xe904;" glyph-name="plus4" d="M469.333 576c0-23.564 19.103-42.667 42.667-42.667s42.667 19.103 42.667 42.667v0c0 23.564 19.103 42.667 42.667 42.667v0h42.667c23.564 0 42.667-19.103 42.667-42.667v0-42.667c0-23.564-19.103-42.667-42.667-42.667v0h-42.667c-70.692 0-128-57.308-128-128v0-128c0-23.564 19.103-42.667 42.667-42.667v0h213.333c23.564 0 42.667 19.103 42.667 42.667s-19.103 42.667-42.667 42.667v0h-170.667v85.333c0 23.564 19.103 42.667 42.667 42.667v0h42.667c70.692 0 128 57.308 128 128v0 42.667c0 70.692-57.308 128-128 128v0h-42.667c-70.692 0-128-57.308-128-128v0zM768 746.667h42.667v-42.667c0-23.564 19.103-42.667 42.667-42.667s42.667 19.103 42.667 42.667v0 42.667h42.667c23.564 0 42.667 19.103 42.667 42.667s-19.103 42.667-42.667 42.667v0h-42.667v42.667c0 23.564-19.103 42.667-42.667 42.667s-42.667-19.103-42.667-42.667v0-42.667h-42.667c-23.564 0-42.667-19.103-42.667-42.667s19.103-42.667 42.667-42.667v0zM298.667 661.333v-426.667c0-23.564 19.103-42.667 42.667-42.667s42.667 19.103 42.667 42.667v0 426.667c0 23.564-19.103 42.667-42.667 42.667s-42.667-19.103-42.667-42.667v0zM921.6 576c-19.619-4.105-34.143-21.26-34.143-41.807 0-3.023 0.314-5.973 0.912-8.818l-0.049 0.278c5.017-23.281 7.89-50.026 7.89-77.443 0-212.077-171.923-384-384-384s-384 171.923-384 384c0 212.077 171.923 384 384 384 27.417 0 54.162-2.873 79.952-8.335l-2.509 0.445c2.565-0.537 5.513-0.845 8.533-0.845 24.031 0 43.512 19.481 43.512 43.512 0 21.011-14.892 38.544-34.697 42.618l-0.281 0.048c-25.377 4.959-54.558 7.796-84.401 7.796-3.629 0-7.247-0.042-10.856-0.125l0.537 0.010c-259.206 0-469.333-210.128-469.333-469.333s210.128-469.333 469.333-469.333c259.206 0 469.333 210.128 469.333 469.333v0c0.001 0.393 0.002 0.858 0.002 1.323 0 32.761-3.419 64.723-9.919 95.55l0.531-3.006c-3.773 20.022-21.125 34.965-41.966 34.965-2.966 0-5.861-0.303-8.657-0.879l0.276 0.047z" />
<glyph unicode="&#xe905;" glyph-name="plus5" d="M768 746.667h42.667v-42.667c0-23.564 19.103-42.667 42.667-42.667s42.667 19.103 42.667 42.667v0 42.667h42.667c23.564 0 42.667 19.103 42.667 42.667s-19.103 42.667-42.667 42.667v0h-42.667v42.667c0 23.564-19.103 42.667-42.667 42.667s-42.667-19.103-42.667-42.667v0-42.667h-42.667c-23.564 0-42.667-19.103-42.667-42.667s19.103-42.667 42.667-42.667v0zM469.333 576c0-23.564 19.103-42.667 42.667-42.667s42.667 19.103 42.667 42.667v0c0 23.564 19.103 42.667 42.667 42.667v0h42.667c23.564 0 42.667-19.103 42.667-42.667v0-42.667c0-23.564-19.103-42.667-42.667-42.667v0h-21.333c-23.564 0-42.667-19.103-42.667-42.667s19.103-42.667 42.667-42.667v0h21.333c23.564 0 42.667-19.103 42.667-42.667v0-42.667c0-23.564-19.103-42.667-42.667-42.667v0h-42.667c-23.564 0-42.667 19.103-42.667 42.667v0c0 23.564-19.103 42.667-42.667 42.667s-42.667-19.103-42.667-42.667v0c0-70.692 57.308-128 128-128v0h42.667c70.692 0 128 57.308 128 128v0 42.667c-0.203 32.927-12.807 62.872-33.371 85.435l0.091-0.102c20.473 22.461 33.077 52.406 33.28 85.292v42.708c0 70.692-57.308 128-128 128v0h-42.667c-70.692 0-128-57.308-128-128v0zM298.667 661.333v-426.667c0-23.564 19.103-42.667 42.667-42.667s42.667 19.103 42.667 42.667v0 426.667c0 23.564-19.103 42.667-42.667 42.667s-42.667-19.103-42.667-42.667v0zM921.6 576c-19.619-4.105-34.143-21.26-34.143-41.807 0-3.023 0.314-5.973 0.912-8.818l-0.049 0.278c5.017-23.281 7.89-50.026 7.89-77.443 0-212.077-171.923-384-384-384s-384 171.923-384 384c0 212.077 171.923 384 384 384 27.417 0 54.162-2.873 79.952-8.335l-2.509 0.445c2.565-0.537 5.513-0.845 8.533-0.845 24.031 0 43.512 19.481 43.512 43.512 0 21.011-14.892 38.544-34.697 42.618l-0.281 0.048c-25.377 4.959-54.558 7.796-84.401 7.796-3.629 0-7.247-0.042-10.856-0.125l0.537 0.010c-259.206 0-469.333-210.128-469.333-469.333s210.128-469.333 469.333-469.333c259.206 0 469.333 210.128 469.333 469.333v0c0.001 0.393 0.002 0.858 0.002 1.323 0 32.761-3.419 64.723-9.919 95.55l0.531-3.006c-3.773 20.022-21.125 34.965-41.966 34.965-2.966 0-5.861-0.303-8.657-0.879l0.276 0.047z" />
<glyph unicode="&#xe906;" glyph-name="plus6" d="M768 746.667h42.667v-42.667c0-23.564 19.103-42.667 42.667-42.667s42.667 19.103 42.667 42.667v0 42.667h42.667c23.564 0 42.667 19.103 42.667 42.667s-19.103 42.667-42.667 42.667v0h-42.667v42.667c0 23.564-19.103 42.667-42.667 42.667s-42.667-19.103-42.667-42.667v0-42.667h-42.667c-23.564 0-42.667-19.103-42.667-42.667s19.103-42.667 42.667-42.667v0zM921.6 576c-19.619-4.105-34.143-21.26-34.143-41.807 0-3.023 0.314-5.973 0.912-8.818l-0.049 0.278c5.017-23.281 7.89-50.026 7.89-77.443 0-212.077-171.923-384-384-384s-384 171.923-384 384c0 212.077 171.923 384 384 384 27.417 0 54.162-2.873 79.952-8.335l-2.509 0.445c2.565-0.537 5.513-0.845 8.533-0.845 24.031 0 43.512 19.481 43.512 43.512 0 21.011-14.892 38.544-34.697 42.618l-0.281 0.048c-25.377 4.959-54.558 7.796-84.401 7.796-3.629 0-7.247-0.042-10.856-0.125l0.537 0.010c-259.206 0-469.333-210.128-469.333-469.333s210.128-469.333 469.333-469.333c259.206 0 469.333 210.128 469.333 469.333v0c0.001 0.393 0.002 0.858 0.002 1.323 0 32.761-3.419 64.723-9.919 95.55l0.531-3.006c-3.773 20.022-21.125 34.965-41.966 34.965-2.966 0-5.861-0.303-8.657-0.879l0.276 0.047zM298.667 661.333v-426.667c0-23.564 19.103-42.667 42.667-42.667s42.667 19.103 42.667 42.667v0 426.667c0 23.564-19.103 42.667-42.667 42.667s-42.667-19.103-42.667-42.667v0zM469.333 576v-256c0-70.692 57.308-128 128-128v0h42.667c70.692 0 128 57.308 128 128v0 42.667c0 70.692-57.308 128-128 128v0h-85.333v85.333c0 23.564 19.103 42.667 42.667 42.667v0h42.667c23.564 0 42.667-19.103 42.667-42.667v0c0-23.564 19.103-42.667 42.667-42.667s42.667 19.103 42.667 42.667v0c0 70.692-57.308 128-128 128v0h-42.667c-70.692 0-128-57.308-128-128v0zM640 405.333c23.564 0 42.667-19.103 42.667-42.667v0-42.667c0-23.564-19.103-42.667-42.667-42.667v0h-42.667c-23.564 0-42.667 19.103-42.667 42.667v0 85.333z" />
<glyph unicode="&#xe907;" glyph-name="plus7" d="M469.333 661.333v-85.333c0-23.564 19.103-42.667 42.667-42.667s42.667 19.103 42.667 42.667v0 42.667h118.613l-75.947-375.467c-0.638-2.766-1.004-5.942-1.004-9.203 0-20.903 15.032-38.295 34.875-41.957l0.263-0.040h8.533c0.256-0.006 0.558-0.009 0.86-0.009 20.547 0 37.701 14.523 41.758 33.864l0.049 0.278 85.333 426.667c0.512 2.48 0.805 5.33 0.805 8.249 0 10.354-3.688 19.846-9.822 27.235l0.057-0.070c-7.885 9.667-19.796 15.79-33.138 15.79-0.2 0-0.4-0.001-0.599-0.004h-213.303c-23.564 0-42.667-19.103-42.667-42.667v0zM768 746.667h42.667v-42.667c0-23.564 19.103-42.667 42.667-42.667s42.667 19.103 42.667 42.667v0 42.667h42.667c23.564 0 42.667 19.103 42.667 42.667s-19.103 42.667-42.667 42.667v0h-42.667v42.667c0 23.564-19.103 42.667-42.667 42.667s-42.667-19.103-42.667-42.667v0-42.667h-42.667c-23.564 0-42.667-19.103-42.667-42.667s19.103-42.667 42.667-42.667v0zM298.667 661.333v-426.667c0-23.564 19.103-42.667 42.667-42.667s42.667 19.103 42.667 42.667v0 426.667c0 23.564-19.103 42.667-42.667 42.667s-42.667-19.103-42.667-42.667v0zM921.6 576c-19.619-4.105-34.143-21.26-34.143-41.807 0-3.023 0.314-5.973 0.912-8.818l-0.049 0.278c5.017-23.281 7.89-50.026 7.89-77.443 0-212.077-171.923-384-384-384s-384 171.923-384 384c0 212.077 171.923 384 384 384 27.417 0 54.162-2.873 79.952-8.335l-2.509 0.445c2.565-0.537 5.513-0.845 8.533-0.845 24.031 0 43.512 19.481 43.512 43.512 0 21.011-14.892 38.544-34.697 42.618l-0.281 0.048c-25.377 4.959-54.558 7.796-84.401 7.796-3.629 0-7.247-0.042-10.856-0.125l0.537 0.010c-259.206 0-469.333-210.128-469.333-469.333s210.128-469.333 469.333-469.333c259.206 0 469.333 210.128 469.333 469.333v0c0.001 0.393 0.002 0.858 0.002 1.323 0 32.761-3.419 64.723-9.919 95.55l0.531-3.006c-3.773 20.022-21.125 34.965-41.966 34.965-2.966 0-5.861-0.303-8.657-0.879l0.276 0.047z" />
<glyph unicode="&#xe908;" glyph-name="plus8" d="M768 746.667h42.667v-42.667c0-23.564 19.103-42.667 42.667-42.667s42.667 19.103 42.667 42.667v0 42.667h42.667c23.564 0 42.667 19.103 42.667 42.667s-19.103 42.667-42.667 42.667v0h-42.667v42.667c0 23.564-19.103 42.667-42.667 42.667s-42.667-19.103-42.667-42.667v0-42.667h-42.667c-23.564 0-42.667-19.103-42.667-42.667s19.103-42.667 42.667-42.667v0zM298.667 661.333v-426.667c0-23.564 19.103-42.667 42.667-42.667s42.667 19.103 42.667 42.667v0 426.667c0 23.564-19.103 42.667-42.667 42.667s-42.667-19.103-42.667-42.667v0zM921.6 576c-19.619-4.105-34.143-21.26-34.143-41.807 0-3.023 0.314-5.973 0.912-8.818l-0.049 0.278c5.017-23.281 7.89-50.026 7.89-77.443 0-212.077-171.923-384-384-384s-384 171.923-384 384c0 212.077 171.923 384 384 384 27.417 0 54.162-2.873 79.952-8.335l-2.509 0.445c2.565-0.537 5.513-0.845 8.533-0.845 24.031 0 43.512 19.481 43.512 43.512 0 21.011-14.892 38.544-34.697 42.618l-0.281 0.048c-25.377 4.959-54.558 7.796-84.401 7.796-3.629 0-7.247-0.042-10.856-0.125l0.537 0.010c-259.206 0-469.333-210.128-469.333-469.333s210.128-469.333 469.333-469.333c259.206 0 469.333 210.128 469.333 469.333v0c0.001 0.393 0.002 0.858 0.002 1.323 0 32.761-3.419 64.723-9.919 95.55l0.531-3.006c-3.773 20.022-21.125 34.965-41.966 34.965-2.966 0-5.861-0.303-8.657-0.879l0.276 0.047zM469.333 576v-42.667c0.203-32.927 12.807-62.872 33.371-85.435l-0.091 0.102c-20.473-22.461-33.077-52.406-33.28-85.292v-42.708c0-70.692 57.308-128 128-128v0h42.667c70.692 0 128 57.308 128 128v0 42.667c-0.203 32.927-12.807 62.872-33.371 85.435l0.091-0.102c20.473 22.461 33.077 52.406 33.28 85.292v42.708c0 70.692-57.308 128-128 128v0h-42.667c-70.692 0-128-57.308-128-128v0zM682.667 320c0-23.564-19.103-42.667-42.667-42.667v0h-42.667c-23.564 0-42.667 19.103-42.667 42.667v0 42.667c0 23.564 19.103 42.667 42.667 42.667v0h42.667c23.564 0 42.667-19.103 42.667-42.667v0zM682.667 576v-42.667c0-23.564-19.103-42.667-42.667-42.667v0h-42.667c-23.564 0-42.667 19.103-42.667 42.667v0 42.667c0 23.564 19.103 42.667 42.667 42.667v0h42.667c23.564 0 42.667-19.103 42.667-42.667v0z" />
<glyph unicode="&#xe909;" glyph-name="plus9" d="M725.333 192c23.564 0 42.667 19.103 42.667 42.667v0 426.667c0 23.564-19.103 42.667-42.667 42.667s-42.667-19.103-42.667-42.667v0-426.667c0-23.564 19.103-42.667 42.667-42.667v0zM768 746.667h42.667v-42.667c0-23.564 19.103-42.667 42.667-42.667s42.667 19.103 42.667 42.667v0 42.667h42.667c23.564 0 42.667 19.103 42.667 42.667s-19.103 42.667-42.667 42.667v0h-42.667v42.667c0 23.564-19.103 42.667-42.667 42.667s-42.667-19.103-42.667-42.667v0-42.667h-42.667c-23.564 0-42.667-19.103-42.667-42.667s19.103-42.667 42.667-42.667v0zM921.6 576c-19.619-4.105-34.143-21.26-34.143-41.807 0-3.023 0.314-5.973 0.912-8.818l-0.049 0.278c5.017-23.281 7.89-50.026 7.89-77.443 0-212.077-171.923-384-384-384s-384 171.923-384 384c0 212.077 171.923 384 384 384 27.417 0 54.162-2.873 79.952-8.335l-2.509 0.445c2.565-0.537 5.513-0.845 8.533-0.845 24.031 0 43.512 19.481 43.512 43.512 0 21.011-14.892 38.544-34.697 42.618l-0.281 0.048c-25.377 4.959-54.558 7.796-84.401 7.796-3.629 0-7.247-0.042-10.856-0.125l0.537 0.010c-259.206 0-469.333-210.128-469.333-469.333s210.128-469.333 469.333-469.333c259.206 0 469.333 210.128 469.333 469.333v0c0.001 0.393 0.002 0.858 0.002 1.323 0 32.761-3.419 64.723-9.919 95.55l0.531-3.006c-3.773 20.022-21.125 34.965-41.966 34.965-2.966 0-5.861-0.303-8.657-0.879l0.276 0.047zM426.667 405.333h42.667c70.692 0 128 57.308 128 128v0 42.667c0 70.692-57.308 128-128 128v0h-42.667c-70.692 0-128-57.308-128-128v0c0-23.564 19.103-42.667 42.667-42.667s42.667 19.103 42.667 42.667v0c0 23.564 19.103 42.667 42.667 42.667v0h42.667c23.564 0 42.667-19.103 42.667-42.667v0-42.667c0-23.564-19.103-42.667-42.667-42.667v0h-42.667c-70.692 0-128-57.308-128-128v0-128c0-23.564 19.103-42.667 42.667-42.667v0h213.333c23.564 0 42.667 19.103 42.667 42.667s-19.103 42.667-42.667 42.667v0h-170.667v85.333c0 23.564 19.103 42.667 42.667 42.667v0z" />
<glyph unicode="&#xe90a;" glyph-name="px" d="M298.667 314.027c1.469-7.085 3.981-13.37 7.405-19.043l-0.151 0.27c14.373-34.575 34.427-64.071 59.289-88.729l0.018-0.018c24.986-24.722 54.563-44.863 87.328-59.024l1.845-0.71c31.26-14.026 67.755-22.196 106.157-22.196 0.779 0 1.558 0.003 2.335 0.010l-0.119-0.001c0.575-0.004 1.256-0.007 1.936-0.007 38.644 0 75.38 8.168 108.577 22.871l-1.713-0.677c34.459 14.875 63.895 35.014 88.759 59.746l-0.012-0.012c25.1 24.701 45.415 54.179 59.483 86.972l0.677 1.775c12.474 30.538 19.714 65.975 19.714 103.102 0 2.454-0.032 4.9-0.094 7.339l0.007-0.361c-0.096 39.42-8.085 76.949-22.469 111.124l0.709-1.898c-14.748 34.418-35.061 63.756-60.112 88.273l-0.048 0.047c-49.994 50.591-119.381 81.924-196.085 81.924-0.514 0-1.028-0.001-1.541-0.004h0.079c-39.892-0.401-77.674-8.998-111.883-24.181l1.803 0.715c-19.624-8.803-36.435-18.493-52.135-29.644l0.935 0.631c-18.246-12.202-34.162-25.407-48.603-40.069l-0.037-0.038v229.973h386.133c9.387 0 14.507 8.96 14.507 26.453s-5.547 26.027-14.933 26.027h-417.707c-0.23 0.012-0.499 0.019-0.769 0.019-4.81 0-9.117-2.151-12.013-5.544l-0.018-0.022c-3.161-3.1-5.121-7.416-5.121-12.189 0-0.065 0-0.13 0.001-0.194v0.010-323.413c0.316-5.325 3.092-9.941 7.197-12.763l0.056-0.037c4.96-3.583 10.832-6.253 17.187-7.625l0.306-0.055c2.744-0.876 5.899-1.382 9.173-1.382s6.43 0.505 9.394 1.442l-0.221-0.060c3.897 1.163 7.295 2.761 10.39 4.785l-0.15-0.092c2.208 2.149 4.177 4.524 5.874 7.094l0.099 0.159c11.295 15.897 23.351 29.849 36.595 42.573l0.098 0.094c39.972 41.099 95.8 66.599 157.583 66.599 1.45 0 2.896-0.014 4.339-0.042l-0.216 0.003c0.877 0.013 1.912 0.020 2.949 0.020 62.814 0 119.472-26.357 159.518-68.614l0.093-0.099c41.592-40.174 67.417-96.44 67.417-158.737 0-0.444-0.001-0.888-0.004-1.331v0.068c-0.279-30.86-6.684-60.149-18.054-86.813l0.561 1.48c-22.804-57.928-66.826-103.338-122.256-127.428l-1.477-0.572c-25.738-10.796-55.65-17.068-87.027-17.068-0.305 0-0.609 0.001-0.913 0.002h0.047c-0.511-0.004-1.116-0.007-1.72-0.007-41.982 0-81.182 11.912-114.404 32.542l0.925-0.535v198.4c0.221 29.551 11.701 56.379 30.358 76.443l-0.064-0.070c19.923 23.325 49.363 38.018 82.234 38.018 1.090 0 2.176-0.016 3.258-0.048l-0.159 0.004c1.403 0.062 3.048 0.098 4.701 0.098 31.563 0 60.106-12.933 80.617-33.789l0.015-0.016c19.802-19.708 32.057-46.984 32.057-77.123 0-1.237-0.021-2.469-0.062-3.696l0.005 0.179c0.001-0.13 0.001-0.285 0.001-0.439 0-64.33-52.15-116.48-116.48-116.48-0.6 0-1.2 0.005-1.798 0.014l0.091-0.001h-14.507l-15.787 2.987h-6.4c-8.96 2.56-15.787-4.267-20.907-20.48s-2.987-25.6 5.973-29.013c15.799-4.874 33.961-7.681 52.779-7.681 0.195 0 0.39 0 0.585 0.001h-0.030c0.629-0.009 1.371-0.014 2.115-0.014 45.994 0 87.561 18.952 117.319 49.473l0.033 0.034c30.58 29.596 49.562 71.013 49.562 116.864 0 1.665-0.025 3.325-0.075 4.978l0.006-0.242c0.021 0.964 0.033 2.101 0.033 3.24 0 45.378-18.992 86.319-49.46 115.311l-0.066 0.063c-29.49 30.301-70.667 49.099-116.234 49.099-1.137 0-2.27-0.012-3.402-0.035l0.169 0.003c-0.897 0.018-1.954 0.028-3.014 0.028-45.903 0-87.42-18.78-117.287-49.075l-0.019-0.019c-29.703-27.653-48.319-66.875-48.64-110.448v-162.191c-19.616 22.353-35.284 48.74-45.56 77.68l-0.52 1.68c-3.413 8.96-12.8 10.667-28.587 5.547s-23.467-12.373-20.48-20.907zM565.333 783.36c-2.134 0.047-4.649 0.074-7.17 0.074-48.872 0-95.391-10.070-137.598-28.247l2.261 0.867c-5.113-0.386-9.198-4.324-9.808-9.335l-0.005-0.051c0.213-6.658 1.604-12.933 3.97-18.705l-0.13 0.358c5.973-14.933 12.8-20.48 21.333-17.493 37.067 14.842 80.033 23.455 125.009 23.467h0.005c0.789 0.007 1.721 0.011 2.654 0.011 46.576 0 90.841-9.898 130.805-27.705l-2.046 0.814c37.833-16.707 70.369-37.898 98.912-63.457l-0.352 0.31c1.922-2.069 4.645-3.372 7.672-3.413h0.008c3.84 0 10.24 4.267 18.347 12.373l8.107 8.107c1.607 2.432 2.564 5.416 2.564 8.624 0 0.118-0.001 0.236-0.004 0.354v-0.018c-0.287 3.411-1.873 6.404-4.254 8.522l-0.013 0.011c-31.542 29.718-68.582 54.032-109.367 71.203l-2.42 0.904c-44.309 19.979-96.002 31.859-150.406 32.425l-0.207 0.002zM496.64 360.533c0.681-5.885 3.875-10.909 8.465-14.036l0.068-0.044c3.684-4.288 8.931-7.142 14.848-7.674l0.085-0.006c0.14-0.007 0.303-0.011 0.468-0.011 2.608 0 4.988 0.975 6.796 2.58l-0.011-0.009 31.147 31.147 29.867-29.013c2.097-2.732 5.303-4.522 8.933-4.692l0.027-0.001c6.148 0.806 11.489 3.765 15.339 8.082l0.021 0.024c8.533 8.96 9.813 16.64 2.987 23.467l-29.867 29.867 31.573 31.573c5.12 5.12 3.413 12.373-5.547 20.907s-17.067 11.52-22.613 5.973l-31.147-30.72-30.72 31.573c-1.805 1.22-4 1.997-6.366 2.132l-0.034 0.002c-5.896-1.049-10.935-4.134-14.472-8.489l-0.035-0.044c-9.813-9.387-11.947-16.213-6.827-21.333l31.573-31.573-31.573-30.72c-2.647-2.235-4.497-5.341-5.107-8.871l-0.013-0.089zM834.987 165.547c-4.449 4.362-9.676 7.95-15.451 10.533l-0.336 0.134c-1.044 0.331-2.245 0.521-3.49 0.521-3.303 0-6.294-1.341-8.456-3.508v0l-2.987-2.987c-29.988-29.84-65.51-54.151-104.887-71.253l-2.206-0.853c-38.788-16.767-83.954-26.52-131.397-26.52-93.252 0-177.704 37.678-238.963 98.64l0.013-0.013c-31.305 29.562-56.535 65.183-73.868 105.033l-0.798 2.061c-8.877 21.481-16.411 46.807-21.371 73.043l-0.389 2.477c0 8.96-10.667 12.373-26.88 9.813s-23.893-8.533-22.613-17.067c5.113-33.667 14.051-63.963 26.513-92.361l-0.913 2.334c21-47.956 49.793-88.777 85.203-122.756l0.13-0.124c34.312-35.43 75.252-64.205 120.852-84.365l2.455-0.968c44.471-19.154 96.24-30.294 150.611-30.294 0.151 0 0.302 0 0.452 0h-0.024c54.528 0.121 106.426 11.247 153.634 31.271l-2.594-0.977c48.054 21.128 88.994 49.903 123.208 85.231l0.099 0.103 2.56 2.56c3.84 9.387 0.853 18.773-10.24 30.293z" />
<glyph unicode="&#xe90b;" glyph-name="abacus" d="M896 874.667c-23.564 0-42.667-19.103-42.667-42.667v0-128h-170.667v42.667c0 23.564-19.103 42.667-42.667 42.667s-42.667-19.103-42.667-42.667v0-42.667h-85.333v42.667c0 23.564-19.103 42.667-42.667 42.667s-42.667-19.103-42.667-42.667v0-42.667h-85.333v42.667c0 23.564-19.103 42.667-42.667 42.667s-42.667-19.103-42.667-42.667v0-42.667h-85.333v128c0 23.564-19.103 42.667-42.667 42.667s-42.667-19.103-42.667-42.667v0-682.667c0-70.692 57.308-128 128-128v0h597.333c70.692 0 128 57.308 128 128v0 682.667c0 23.564-19.103 42.667-42.667 42.667v0zM853.333 149.333c0-23.564-19.103-42.667-42.667-42.667v0h-597.333c-23.564 0-42.667 19.103-42.667 42.667v0 128h85.333v-42.667c0-23.564 19.103-42.667 42.667-42.667s42.667 19.103 42.667 42.667v0 42.667h85.333v-42.667c0-23.564 19.103-42.667 42.667-42.667s42.667 19.103 42.667 42.667v0 42.667h170.667v-42.667c0-23.564 19.103-42.667 42.667-42.667s42.667 19.103 42.667 42.667v0 42.667h85.333zM853.333 362.667h-85.333v42.667c0 23.564-19.103 42.667-42.667 42.667s-42.667-19.103-42.667-42.667v0-42.667h-170.667v42.667c0 23.564-19.103 42.667-42.667 42.667s-42.667-19.103-42.667-42.667v0-42.667h-85.333v42.667c0 23.564-19.103 42.667-42.667 42.667s-42.667-19.103-42.667-42.667v0-42.667h-85.333v256h85.333v-42.667c0-23.564 19.103-42.667 42.667-42.667s42.667 19.103 42.667 42.667v0 42.667h85.333v-42.667c0-23.564 19.103-42.667 42.667-42.667s42.667 19.103 42.667 42.667v0 42.667h85.333v-42.667c0-23.564 19.103-42.667 42.667-42.667s42.667 19.103 42.667 42.667v0 42.667h170.667z" />
<glyph unicode="&#xe90c;" glyph-name="accessible-icon-alt" d="M682.667 661.333c47.128 0 85.333 38.205 85.333 85.333s-38.205 85.333-85.333 85.333c-47.128 0-85.333-38.205-85.333-85.333v0c0-47.128 38.205-85.333 85.333-85.333v0zM541.867 174.933c-31.499-40.949-80.515-67.079-135.634-67.079-94.257 0-170.667 76.41-170.667 170.667 0 87.174 65.358 159.082 149.745 169.397l0.823 0.082c21.6 2.445 38.231 20.614 38.231 42.667 0 23.706-19.218 42.924-42.924 42.924-1.653 0-3.285-0.093-4.89-0.275l0.197 0.018c-135.319-7.787-242.105-119.423-242.105-256 0-141.605 114.794-256.399 256.399-256.399 5.028 0 10.022 0.145 14.979 0.43l-0.686-0.032c83.464 0 157.6 39.943 204.333 101.756l0.467 0.644c5.327 7.042 8.533 15.947 8.533 25.6 0 23.564-19.103 42.667-42.667 42.667-13.911 0-26.267-6.657-34.056-16.959l-0.078-0.107zM832 106.667h-42.667v213.333c0 23.564-19.103 42.667-42.667 42.667v0h-194.987l72.107 198.827s0 2.987 0 4.693v8.533c0.1 1.15 0.157 2.488 0.157 3.84s-0.057 2.69-0.169 4.013l0.012-0.173c0.116 1.215 0.182 2.626 0.182 4.053s-0.066 2.839-0.195 4.232l0.013-0.179c-1.272 2.845-2.554 5.225-3.986 7.501l0.146-0.248c-1.355 2.436-2.912 4.537-4.704 6.412l0.011-0.012c-1.826 2.154-3.935 3.992-6.288 5.48l-0.112 0.066s0 2.56-3.413 3.413l-191.147 110.080h-5.12c-2.291 1.003-5 1.884-7.806 2.504l-0.3 0.056h-17.067c-3.221-0.677-6.074-1.708-8.724-3.076l0.191 0.090h-4.693l-114.773-66.987c-13.013-7.473-21.636-21.292-21.636-37.124 0-23.371 18.79-42.352 42.087-42.663h0.029c0.335-0.009 0.729-0.015 1.124-0.015 7.745 0 15.008 2.064 21.27 5.671l-0.207-0.11 95.147 55.467 138.24-80.213-80.64-222.293c-0.099-1.023-0.155-2.212-0.155-3.413s0.056-2.39 0.167-3.563l-0.011 0.15c-0.191-1.154-0.3-2.484-0.3-3.84s0.109-2.686 0.319-3.982l-0.019 0.142c0.914-6.297 2.105-11.778 3.635-17.116l-0.221 0.903 4.693-6.4c1.228-2.635 2.802-4.891 4.698-6.831l-0.005 0.005c1.734-1.457 3.696-2.737 5.804-3.765l0.169-0.075c2.358-1.83 5.013-3.531 7.817-4.983l0.29-0.137c4.314-1.616 9.3-2.554 14.504-2.56h213.336v-213.333c0-23.564 19.103-42.667 42.667-42.667v0h85.333c23.564 0 42.667 19.103 42.667 42.667s-19.103 42.667-42.667 42.667v0z" />
<glyph unicode="&#xe90d;" glyph-name="adjust-circle" d="M725.333 661.333c-48.95 124.976-168.476 211.87-308.297 211.87-182.387 0-330.24-147.853-330.24-330.24 0-139.821 86.895-259.347 209.628-307.522l2.243-0.776c48.95-124.976 168.476-211.87 308.297-211.87 182.387 0 330.24 147.853 330.24 330.24 0 139.821-86.895 259.347-209.628 307.522l-2.243 0.776zM657.067 593.067c2.943-14.604 4.649-31.409 4.693-48.604v-0.036c-0.097-20.329-2.58-40.031-7.183-58.902l0.356 1.729-104.107 103.253c17.142 4.247 36.844 6.73 57.11 6.826h0.063c17.231-0.044 34.036-1.751 50.299-4.967l-1.659 0.274zM616.96 405.333c-17.273-24.386-37.907-45.020-61.499-61.759l-0.794-0.535-147.627 147.627c17.273 24.386 37.907 45.020 61.499 61.759l0.794 0.535zM275.627 343.040c-64.256 44.872-105.765 118.471-105.765 201.765 0 135.494 109.839 245.333 245.333 245.333 83.294 0 156.893-41.51 201.239-104.971l0.526-0.794h-10.667c-181.939-1.208-328.963-148.978-328.963-331.086 0-0.452 0.001-0.904 0.003-1.356v0.069c0-3.413 0.427-7.253 0.427-10.667zM365.227 305.067c-2.943 14.604-4.649 31.409-4.693 48.604v0.036c0.097 20.329 2.58 40.031 7.183 58.902l-0.356-1.729 103.68-103.68c-17.142-4.247-36.844-6.73-57.11-6.826h-0.063c-1.961-0.053-4.27-0.083-6.585-0.083-14.091 0-27.922 1.116-41.409 3.265l1.487-0.195zM608 106.667c-83.819 0.162-157.788 42.187-202.131 106.274l-0.536 0.819h10.667c182.375 0.242 330.182 147.899 330.667 330.193v0.047c0 3.413 0 7.253 0 10.667 65.008-44.785 107.078-118.813 107.078-202.667 0-135.494-109.839-245.333-245.333-245.333-0.145 0-0.289 0-0.434 0h0.023z" />
<glyph unicode="&#xe90e;" glyph-name="adjust-alt" d="M888.747 647.68v0c0.11 0.513 0.172 1.103 0.172 1.707s-0.063 1.194-0.182 1.762l0.010-0.056c-35.031 63.954-83.784 116.393-142.572 154.729l-1.641 1.004c-64.776 42.538-144.17 67.851-229.475 67.851-1.075 0-2.149-0.004-3.223-0.012l0.165 0.001c-23.564 0-42.667-19.103-42.667-42.667v0-768c0-23.564 19.103-42.667 42.667-42.667v0h11.947c230.349 6.777 414.501 195.13 414.501 426.493 0 73.13-18.398 141.962-50.818 202.122l1.117-2.268zM554.667 786.773c39.517-5.109 75.372-16.22 108.236-32.465l-1.996 0.892-106.24-184.32zM554.667 400.213l177.92 308.053c26.136-22.321 48.47-48.047 66.597-76.699l0.816-1.381-245.333-424.96zM604.16 119.893l238.507 413.44c6.673-25.586 10.557-54.981 10.666-85.265v-0.068c0.002-0.415 0.003-0.905 0.003-1.396 0-155.218-104.388-286.055-246.791-326.137l-2.385-0.574z" />
<glyph unicode="&#xe90f;" glyph-name="adobe-alt" d="M437.208 857.481c-7.757 11.474-20.72 18.917-35.421 18.917-0.006 0-0.012 0-0.017 0h-316.791c-0.003 0-0.007 0-0.011 0-23.558 0-42.656-19.098-42.656-42.656 0-0.004 0-0.008 0-0.012v0.001-771.499c0.003-23.565 19.107-42.667 42.673-42.667 17.72 0 32.917 10.8 39.368 26.178l0.105 0.281 316.792 771.499c2.017 4.786 3.189 10.351 3.189 16.189 0 8.864-2.702 17.097-7.327 23.92l0.096-0.15zM127.646 278.481v512.583h210.479zM938.313 876.398h-320.75c-23.557-0.010-42.65-19.108-42.65-42.667 0-5.973 1.227-11.659 3.443-16.82l-0.106 0.278 320.75-761.583c6.618-15.475 21.711-26.122 39.291-26.125v0c2.998 0.010 5.92 0.312 8.745 0.881l-0.287-0.048c19.656 4.087 34.217 21.258 34.229 41.832v761.584c0 0.003 0 0.007 0 0.011 0 23.558-19.098 42.656-42.656 42.656-0.004 0-0.008 0-0.012 0h0.001zM895.646 283.398l-213.812 507.667h213.812zM552.5 553.813c-6.219 16.132-21.521 27.405-39.478 27.583h-0.439c-0.001 0-0.003 0-0.004 0-17.844 0-33.129-10.955-39.497-26.507l-0.103-0.285-130.521-325.582c-1.938-4.7-3.063-10.156-3.063-15.875 0-23.564 19.103-42.667 42.667-42.667 0 0 0 0 0.001 0h96.188l64.959-127.584c7.195-13.955 21.507-23.333 38.009-23.333 0.004 0 0.008 0 0.013 0h111.478c23.566 0.002 42.669 19.107 42.669 42.673 0 5.418-1.010 10.6-2.851 15.368l0.099-0.292zM607.396 104.897l-64.958 127.583c-7.195 13.956-21.508 23.334-38.010 23.334-0.004 0-0.007 0-0.011 0h-59.291l66.292 165.333 119.542-316.25z" />
<glyph unicode="&#xe910;" glyph-name="adjust" d="M512 874.667c-235.641 0-426.667-191.025-426.667-426.667s191.025-426.667 426.667-426.667c235.641 0 426.667 191.025 426.667 426.667v0c0 235.641-191.025 426.667-426.667 426.667v0zM469.333 109.653c-168.131 23.026-296.278 165.721-296.278 338.347s128.147 315.321 294.502 338.147l1.776 0.2zM554.667 109.653v676.693c168.131-23.026 296.278-165.721 296.278-338.347s-128.147-315.321-294.502-338.147l-1.776-0.2z" />
<glyph unicode="&#xe911;" glyph-name="align-center" d="M128 661.333h768c23.564 0 42.667 19.103 42.667 42.667s-19.103 42.667-42.667 42.667v0h-768c-23.564 0-42.667-19.103-42.667-42.667s19.103-42.667 42.667-42.667v0zM298.667 576c-23.564 0-42.667-19.103-42.667-42.667s19.103-42.667 42.667-42.667v0h426.667c23.564 0 42.667 19.103 42.667 42.667s-19.103 42.667-42.667 42.667v0zM896 405.333h-768c-23.564 0-42.667-19.103-42.667-42.667s19.103-42.667 42.667-42.667v0h768c23.564 0 42.667 19.103 42.667 42.667s-19.103 42.667-42.667 42.667v0zM725.333 234.667h-426.667c-23.564 0-42.667-19.103-42.667-42.667s19.103-42.667 42.667-42.667v0h426.667c23.564 0 42.667 19.103 42.667 42.667s-19.103 42.667-42.667 42.667v0z" />
<glyph unicode="&#xe912;" glyph-name="align-center-v" d="M435.627 695.040l33.707 34.133v-110.507c0-23.564 19.103-42.667 42.667-42.667s42.667 19.103 42.667 42.667v0 110.507l33.707-34.133c7.733-7.795 18.45-12.621 30.293-12.621s22.56 4.826 30.291 12.618l0.003 0.003c7.795 7.733 12.621 18.45 12.621 30.293s-4.826 22.56-12.618 30.291l-106.67 106.67c-3.937 3.773-8.616 6.808-13.791 8.859l-0.289 0.101c-4.793 2.024-10.366 3.201-16.213 3.201s-11.42-1.176-16.495-3.305l0.281 0.105c-5.464-2.152-10.143-5.187-14.095-8.974l0.015 0.014-106.667-106.667c-7.753-7.753-12.548-18.463-12.548-30.293 0-23.661 19.181-42.841 42.841-42.841 11.83 0 22.541 4.795 30.293 12.548v0zM682.667 490.667h-341.333c-23.564 0-42.667-19.103-42.667-42.667s19.103-42.667 42.667-42.667v0h341.333c23.564 0 42.667 19.103 42.667 42.667s-19.103 42.667-42.667 42.667v0zM588.373 200.96l-33.707-34.133v110.507c0 23.564-19.103 42.667-42.667 42.667s-42.667-19.103-42.667-42.667v0-110.507l-33.707 34.133c-7.753 7.753-18.463 12.548-30.293 12.548-23.661 0-42.841-19.181-42.841-42.841 0-11.83 4.795-22.541 12.548-30.293l106.667-106.667c3.937-3.773 8.616-6.808 13.791-8.859l0.289-0.101c4.771-2.163 10.345-3.423 16.213-3.423s11.443 1.26 16.466 3.525l-0.253-0.102c5.464 2.152 10.143 5.187 14.095 8.974l-0.015-0.014 106.667 106.667c7.753 7.753 12.548 18.463 12.548 30.293 0 23.661-19.181 42.841-42.841 42.841-11.83 0-22.541-4.795-30.293-12.548v0z" />
<glyph unicode="&#xe913;" glyph-name="align-center-alt" d="M213.333 618.667h597.333c23.564 0 42.667 19.103 42.667 42.667s-19.103 42.667-42.667 42.667v0h-597.333c-23.564 0-42.667-19.103-42.667-42.667s19.103-42.667 42.667-42.667v0zM896 490.667h-768c-23.564 0-42.667-19.103-42.667-42.667s19.103-42.667 42.667-42.667v0h768c23.564 0 42.667 19.103 42.667 42.667s-19.103 42.667-42.667 42.667v0zM810.667 277.333h-597.333c-23.564 0-42.667-19.103-42.667-42.667s19.103-42.667 42.667-42.667v0h597.333c23.564 0 42.667 19.103 42.667 42.667s-19.103 42.667-42.667 42.667v0z" />
<glyph unicode="&#xe914;" glyph-name="align-alt" d="M426.667 490.667h-298.667c-23.564 0-42.667-19.103-42.667-42.667s19.103-42.667 42.667-42.667v0h298.667c23.564 0 42.667 19.103 42.667 42.667s-19.103 42.667-42.667 42.667v0zM426.667 149.333h-298.667c-23.564 0-42.667-19.103-42.667-42.667s19.103-42.667 42.667-42.667v0h298.667c23.564 0 42.667 19.103 42.667 42.667s-19.103 42.667-42.667 42.667v0zM597.333 746.667h298.667c23.564 0 42.667 19.103 42.667 42.667s-19.103 42.667-42.667 42.667v0h-298.667c-23.564 0-42.667-19.103-42.667-42.667s19.103-42.667 42.667-42.667v0zM426.667 661.333h-298.667c-23.564 0-42.667-19.103-42.667-42.667s19.103-42.667 42.667-42.667v0h298.667c23.564 0 42.667 19.103 42.667 42.667s-19.103 42.667-42.667 42.667v0zM426.667 320h-298.667c-23.564 0-42.667-19.103-42.667-42.667s19.103-42.667 42.667-42.667v0h298.667c23.564 0 42.667 19.103 42.667 42.667s-19.103 42.667-42.667 42.667v0zM426.667 832h-128c-23.564 0-42.667-19.103-42.667-42.667s19.103-42.667 42.667-42.667v0h128c23.564 0 42.667 19.103 42.667 42.667s-19.103 42.667-42.667 42.667v0zM896 661.333h-298.667c-23.564 0-42.667-19.103-42.667-42.667s19.103-42.667 42.667-42.667v0h298.667c23.564 0 42.667 19.103 42.667 42.667s-19.103 42.667-42.667 42.667v0zM896 490.667h-298.667c-23.564 0-42.667-19.103-42.667-42.667s19.103-42.667 42.667-42.667v0h298.667c23.564 0 42.667 19.103 42.667 42.667s-19.103 42.667-42.667 42.667v0zM725.333 149.333h-128c-23.564 0-42.667-19.103-42.667-42.667s19.103-42.667 42.667-42.667v0h128c23.564 0 42.667 19.103 42.667 42.667s-19.103 42.667-42.667 42.667v0zM896 320h-298.667c-23.564 0-42.667-19.103-42.667-42.667s19.103-42.667 42.667-42.667v0h298.667c23.564 0 42.667 19.103 42.667 42.667s-19.103 42.667-42.667 42.667v0z" />
<glyph unicode="&#xe915;" glyph-name="arrow-break" d="M298.667 490.667h426.667c23.564 0 42.667 19.103 42.667 42.667s-19.103 42.667-42.667 42.667v0h-170.667v153.173l33.707-34.133c7.733-7.795 18.45-12.621 30.293-12.621s22.56 4.826 30.291 12.618l0.003 0.003c7.795 7.733 12.621 18.45 12.621 30.293s-4.826 22.56-12.618 30.291l-106.67 106.67c-3.937 3.773-8.616 6.808-13.791 8.859l-0.289 0.101c-4.793 2.024-10.366 3.201-16.213 3.201s-11.42-1.176-16.495-3.305l0.281 0.105c-5.464-2.152-10.143-5.187-14.095-8.974l0.015 0.014-106.667-106.667c-7.753-7.753-12.548-18.463-12.548-30.293 0-23.661 19.181-42.841 42.841-42.841 11.83 0 22.541 4.795 30.293 12.548v0l33.707 34.133v-153.173h-170.667c-23.564 0-42.667-19.103-42.667-42.667s19.103-42.667 42.667-42.667v0zM725.333 405.333h-426.667c-23.564 0-42.667-19.103-42.667-42.667s19.103-42.667 42.667-42.667v0h170.667v-153.173l-33.707 34.133c-7.753 7.753-18.463 12.548-30.293 12.548-23.661 0-42.841-19.181-42.841-42.841 0-11.83 4.795-22.541 12.548-30.293l106.667-106.667c3.937-3.773 8.616-6.808 13.791-8.859l0.289-0.101c4.771-2.163 10.345-3.423 16.213-3.423s11.443 1.26 16.466 3.525l-0.253-0.102c5.464 2.152 10.143 5.187 14.095 8.974l-0.015-0.014 106.667 106.667c7.753 7.753 12.548 18.463 12.548 30.293 0 23.661-19.181 42.841-42.841 42.841-11.83 0-22.541-4.795-30.293-12.548v0l-33.707-34.133v153.173h170.667c23.564 0 42.667 19.103 42.667 42.667s-19.103 42.667-42.667 42.667v0z" />
<glyph unicode="&#xe916;" glyph-name="archway" d="M938.667 106.667h-42.667v512h42.667c23.564 0 42.667 19.103 42.667 42.667s-19.103 42.667-42.667 42.667v0h-42.667v128c0 23.564-19.103 42.667-42.667 42.667v0h-682.667c-23.564 0-42.667-19.103-42.667-42.667v0-128h-42.667c-23.564 0-42.667-19.103-42.667-42.667s19.103-42.667 42.667-42.667v0h42.667v-512h-42.667c-23.564 0-42.667-19.103-42.667-42.667s19.103-42.667 42.667-42.667v0h853.333c23.564 0 42.667 19.103 42.667 42.667s-19.103 42.667-42.667 42.667v0zM640 106.667h-256v150.613c0 0.177-0.001 0.387-0.001 0.596 0 95.726 50.764 179.596 126.841 226.157l1.16 0.66c77.236-47.221 128.001-131.090 128.001-226.817 0-0.21 0-0.419-0.001-0.629v0.032zM810.667 106.667h-85.333v150.613c0.002 0.453 0.003 0.988 0.003 1.524 0 136.26-78.181 254.26-192.134 311.589l-2.003 0.913c-5.59 2.877-12.198 4.564-19.2 4.564s-13.61-1.687-19.44-4.676l0.24 0.112c-115.955-58.242-194.137-176.242-194.137-312.503 0-0.536 0.001-1.071 0.004-1.607v0.083-150.613h-85.333v512h597.333zM810.667 704h-597.333v85.333h597.333z" />
<glyph unicode="&#xe917;" glyph-name="align-center-justify" d="M896 320h-768c-23.564 0-42.667-19.103-42.667-42.667s19.103-42.667 42.667-42.667v0h768c23.564 0 42.667 19.103 42.667 42.667s-19.103 42.667-42.667 42.667v0zM128 746.667h768c23.564 0 42.667 19.103 42.667 42.667s-19.103 42.667-42.667 42.667v0h-768c-23.564 0-42.667-19.103-42.667-42.667s19.103-42.667 42.667-42.667v0zM725.333 149.333h-426.667c-23.564 0-42.667-19.103-42.667-42.667s19.103-42.667 42.667-42.667v0h426.667c23.564 0 42.667 19.103 42.667 42.667s-19.103 42.667-42.667 42.667v0zM896 661.333h-768c-23.564 0-42.667-19.103-42.667-42.667s19.103-42.667 42.667-42.667v0h768c23.564 0 42.667 19.103 42.667 42.667s-19.103 42.667-42.667 42.667v0zM896 490.667h-768c-23.564 0-42.667-19.103-42.667-42.667s19.103-42.667 42.667-42.667v0h768c23.564 0 42.667 19.103 42.667 42.667s-19.103 42.667-42.667 42.667v0z" />
<glyph unicode="&#xe918;" glyph-name="align-center-h" d="M935.253 464.213c-2.152 5.464-5.187 10.143-8.974 14.095l0.014-0.015-106.667 106.667c-7.753 7.753-18.463 12.548-30.293 12.548-23.661 0-42.841-19.181-42.841-42.841 0-11.83 4.795-22.541 12.548-30.293v0l34.133-33.707h-110.507c-23.564 0-42.667-19.103-42.667-42.667s19.103-42.667 42.667-42.667v0h110.507l-34.133-33.707c-7.795-7.733-12.621-18.45-12.621-30.293s4.826-22.56 12.618-30.291l0.003-0.003c7.733-7.795 18.45-12.621 30.293-12.621s22.56 4.826 30.291 12.618l106.67 106.67c3.773 3.937 6.808 8.616 8.859 13.791l0.101 0.289c2.024 4.793 3.201 10.366 3.201 16.213s-1.176 11.42-3.305 16.495l0.105-0.281zM341.333 490.667h-110.507l34.133 33.707c7.753 7.753 12.548 18.463 12.548 30.293 0 23.661-19.181 42.841-42.841 42.841-11.83 0-22.541-4.795-30.293-12.548l-106.667-106.667c-3.773-3.937-6.808-8.616-8.859-13.791l-0.101-0.289c-2.024-4.793-3.201-10.366-3.201-16.213s1.176-11.42 3.305-16.495l-0.105 0.281c2.152-5.464 5.187-10.143 8.974-14.095l-0.014 0.015 106.667-106.667c7.733-7.795 18.45-12.621 30.293-12.621s22.56 4.826 30.291 12.618l0.003 0.003c7.795 7.733 12.621 18.45 12.621 30.293s-4.826 22.56-12.618 30.291l-0.003 0.003-34.133 33.707h110.507c23.564 0 42.667 19.103 42.667 42.667s-19.103 42.667-42.667 42.667v0zM512 661.333c-23.564 0-42.667-19.103-42.667-42.667v0-341.333c0-23.564 19.103-42.667 42.667-42.667s42.667 19.103 42.667 42.667v0 341.333c0 23.564-19.103 42.667-42.667 42.667v0z" />
<glyph unicode="&#xe919;" glyph-name="archive-alt" d="M426.667 405.333h170.667c23.564 0 42.667 19.103 42.667 42.667s-19.103 42.667-42.667 42.667v0h-170.667c-23.564 0-42.667-19.103-42.667-42.667s19.103-42.667 42.667-42.667v0zM810.667 832h-597.333c-70.264-0.563-127.007-57.653-127.007-127.996 0-55.027 34.724-101.945 83.455-120.036l0.886-0.288v-391.68c0-70.692 57.308-128 128-128v0h426.667c70.692 0 128 57.308 128 128v0 391.68c49.617 18.379 84.34 65.296 84.34 120.324 0 70.343-56.743 127.434-126.954 127.996h-0.053zM768 192c0-23.564-19.103-42.667-42.667-42.667v0h-426.667c-23.564 0-42.667 19.103-42.667 42.667v0 384h512zM810.667 661.333h-597.333c-23.564 0-42.667 19.103-42.667 42.667s19.103 42.667 42.667 42.667v0h597.333c23.564 0 42.667-19.103 42.667-42.667s-19.103-42.667-42.667-42.667v0z" />
<glyph unicode="&#xe91a;" glyph-name="apple-alt" d="M874.854 288.273c-51.985 22.648-87.667 73.58-87.667 132.846 0 0.201 0 0.403 0.001 0.604v-0.031c0.73 53.115 29.099 99.445 71.348 125.337l0.652 0.371c12.225 7.645 20.236 21.034 20.236 36.294 0 8.996-2.784 17.342-7.538 24.222l0.093-0.142c-38.866 55.982-100.002 94.16-170.308 101.7l-1.046 0.091c26.465 41.409 42.184 91.906 42.184 146.075 0 8.305-0.37 16.524-1.093 24.641l0.075-1.049c-2.053 21.457-19.987 38.103-41.809 38.103-0.8 0-1.595-0.022-2.384-0.067l0.11 0.005c-75.961-6.962-142.439-42.729-189.305-96.134l-0.279-0.324c-29.63-34.182-51.593-75.829-62.716-121.713l-0.409-1.996c-20.57 7.2-44.291 11.506-68.973 11.832l-0.152 0.002c-91.11-2.663-169.857-53.134-212.286-127.1l-0.652-1.233c-80.542-139.833-31.271-349.375 55.979-475.5 35-50.542 87.521-126.417 166.75-126.417 1.562 0 3.146 0 4.729 0.085 28.099 1.638 54.168 8.765 77.668 20.32l-1.188-0.528c17.941 9.289 39.128 14.836 61.587 15.082l0.080 0.001c21.195-0.266 41.092-5.567 58.631-14.758l-0.714 0.341c24.492-11.864 53.212-18.991 83.549-19.456l0.16-0.002c81.625 1.542 129.835 71.958 165.042 123.417 26.263 38.138 48.173 82.079 63.514 128.992l1.028 3.633c1.23 3.809 1.94 8.192 1.94 12.74 0 17.887-10.971 33.211-26.55 39.611l-0.285 0.104zM572.729 765.106c22.022 24.558 49.456 43.805 80.462 55.923l1.434 0.493c-7.362-35.426-22.862-66.429-44.486-92.104l0.257 0.313c-14.951-17.854-32.824-32.678-52.982-43.889l-0.955-0.488-0.125-0.043c-1.208-0.5-2.417-0.958-3.627-1.458-7.958-3.125-17.792-7-25.375-9.5 7.833 35.137 23.701 65.765 45.613 91.006l-0.216-0.254zM764.791 151.356c-34.292-50.083-61.269-85.625-96.187-86.25-17.715 0.058-34.341 4.668-48.784 12.721l0.513-0.263c-26.801 13.355-58.355 21.243-91.733 21.418h-0.059c-34.604-0.18-67.284-8.233-96.399-22.455l1.315 0.58c-13.459-7.022-29.207-11.703-45.896-13.055l-0.437-0.028h-1.271c-34.688 0-72 53.875-96.771 89.667-61.979 89.583-119.146 268.083-52.187 384.333 28.247 49.908 80.175 83.523 140.115 85.573l0.281 0.008 1.437 0.043c25.84-2.252 49.605-9.007 71.23-19.487l-1.209 0.529c5.604-2.208 11.125-4.416 16.604-6.458 1.396-0.584 2.833-1.125 4.291-1.583 14.056-5.82 30.346-9.48 47.409-10.118l0.258-0.008c24.607 2.006 47.274 8.418 67.852 18.452l-1.121-0.493c26.973 13.389 58.739 21.223 92.336 21.223 0.878 0 1.755-0.005 2.631-0.016l-0.133 0.001c36.699-1.479 69.984-14.979 96.3-36.639l-0.279 0.223c-44.977-41.535-73.048-100.804-73.048-166.628 0-0.6 0.002-1.198 0.007-1.797l-0.001 0.092v-0.043c-0.003-0.424-0.005-0.925-0.005-1.427 0-79.775 41.306-149.902 103.697-190.16l0.89-0.538c-12.41-29.689-26.364-55.146-42.612-78.911l0.965 1.494z" />
<glyph unicode="&#xe91b;" glyph-name="annoyed" d="M384 576c-23.564 0-42.667-19.103-42.667-42.667s19.103-42.667 42.667-42.667c23.564 0 42.667 19.103 42.667 42.667v0c0 23.564-19.103 42.667-42.667 42.667v0zM640 405.333c-0.003 0-0.006 0-0.009 0-79.754 0-149.286-43.765-185.891-108.588l-0.553-1.065c-3.499-6.055-5.563-13.32-5.563-21.067 0-15.716 8.497-29.448 21.148-36.851l0.202-0.109c6.011-3.467 13.216-5.522 20.9-5.547h0.007c15.854 0.028 29.676 8.699 37.010 21.55l0.11 0.21c22.245 39.725 64.066 66.135 112.057 66.135 0.205 0 0.41 0 0.615-0.001h-0.032c23.564 0 42.667 19.103 42.667 42.667s-19.103 42.667-42.667 42.667v0zM640 576c-23.564 0-42.667-19.103-42.667-42.667s19.103-42.667 42.667-42.667c23.564 0 42.667 19.103 42.667 42.667v0c0 23.564-19.103 42.667-42.667 42.667v0zM512 874.667c-235.641 0-426.667-191.025-426.667-426.667s191.025-426.667 426.667-426.667c235.641 0 426.667 191.025 426.667 426.667v0c0 235.641-191.025 426.667-426.667 426.667v0zM512 106.667c-188.513 0-341.333 152.82-341.333 341.333s152.82 341.333 341.333 341.333c188.513 0 341.333-152.82 341.333-341.333v0c0-188.513-152.82-341.333-341.333-341.333v0z" />
<glyph unicode="&#xe91c;" glyph-name="angle-up" d="M725.333 387.84l-183.040 180.907c-7.733 7.795-18.45 12.621-30.293 12.621s-22.56-4.826-30.291-12.618l-180.91-180.91c-7.795-7.733-12.621-18.45-12.621-30.293s4.826-22.56 12.618-30.291l0.003-0.003c7.712-7.668 18.343-12.407 30.080-12.407s22.368 4.74 30.082 12.409l151.038 151.038 151.040-151.040c7.667-7.606 18.211-12.323 29.857-12.373h0.010c0.073 0 0.16-0.001 0.247-0.001 11.721 0 22.338 4.726 30.049 12.377l-0.003-0.003c8.451 7.82 13.725 18.969 13.725 31.35 0 11.325-4.412 21.619-11.611 29.258l0.020-0.021z" />
<glyph unicode="&#xe91d;" glyph-name="angle-right" d="M632.747 478.293l-180.907 180.907c-7.733 7.795-18.45 12.621-30.293 12.621s-22.56-4.826-30.291-12.618l-0.003-0.003c-7.668-7.712-12.407-18.343-12.407-30.080s4.74-22.368 12.409-30.082l151.038-151.038-151.040-151.040c-7.668-7.712-12.407-18.343-12.407-30.080s4.74-22.368 12.409-30.082l-0.002 0.002c7.709-7.648 18.326-12.374 30.047-12.374 0.087 0 0.173 0 0.26 0.001h-0.013c0.073 0 0.16-0.001 0.247-0.001 11.721 0 22.338 4.726 30.049 12.377l180.904 180.904c7.795 7.733 12.621 18.45 12.621 30.293s-4.826 22.56-12.618 30.291l-0.003 0.003z" />
<glyph unicode="&#xe91e;" glyph-name="angle-down" d="M725.333 568.747c-7.712 7.668-18.343 12.407-30.080 12.407s-22.368-4.74-30.082-12.409l0.002 0.002-153.173-151.040-151.040 151.040c-7.712 7.668-18.343 12.407-30.080 12.407s-22.368-4.74-30.082-12.409l0.002 0.002c-7.795-7.733-12.621-18.45-12.621-30.293s4.826-22.56 12.618-30.291l180.91-180.91c7.733-7.795 18.45-12.621 30.293-12.621s22.56 4.826 30.291 12.618l0.003 0.003 183.040 180.907c7.795 7.733 12.621 18.45 12.621 30.293s-4.826 22.56-12.618 30.291l-0.003 0.003z" />
<glyph unicode="&#xe91f;" glyph-name="angle-double-right" d="M360.96 606.293c-7.903 8.119-18.936 13.155-31.147 13.155-23.996 0-43.449-19.453-43.449-43.449 0-11.786 4.693-22.476 12.312-30.303l-0.009 0.010 99.84-97.707-99.84-97.707c-7.795-7.733-12.621-18.45-12.621-30.293s4.826-22.56 12.618-30.291l0.003-0.003c7.733-7.795 18.45-12.621 30.293-12.621s22.56 4.826 30.291 12.618l128.003 128.003c7.795 7.733 12.621 18.45 12.621 30.293s-4.826 22.56-12.618 30.291l-0.003 0.003zM723.627 478.293l-128 128c-7.753 7.753-18.463 12.548-30.293 12.548-23.661 0-42.841-19.181-42.841-42.841 0-11.83 4.795-22.541 12.548-30.293v0l98.133-97.707-98.133-97.707c-7.795-7.733-12.621-18.45-12.621-30.293s4.826-22.56 12.618-30.291l0.003-0.003c7.733-7.795 18.45-12.621 30.293-12.621s22.56 4.826 30.291 12.618l128.003 128.003c8.317 7.805 13.498 18.867 13.498 31.139 0 11.427-4.492 21.805-11.807 29.464l0.016-0.016z" />
<glyph unicode="&#xe920;" glyph-name="angle-double-left" d="M488.96 606.293c-7.733 7.795-18.45 12.621-30.293 12.621s-22.56-4.826-30.291-12.618l-128.003-128.003c-7.795-7.733-12.621-18.45-12.621-30.293s4.826-22.56 12.618-30.291l128.003-128.003c7.733-7.795 18.45-12.621 30.293-12.621s22.56 4.826 30.291 12.618l0.003 0.003c7.795 7.733 12.621 18.45 12.621 30.293s-4.826 22.56-12.618 30.291l-0.003 0.003-98.133 97.707 98.133 97.707c7.795 7.733 12.621 18.45 12.621 30.293s-4.826 22.56-12.618 30.291l-0.003 0.003zM625.493 448l99.84 97.707c7.753 7.753 12.548 18.463 12.548 30.293 0 23.661-19.181 42.841-42.841 42.841-11.83 0-22.541-4.795-30.293-12.548l-128-128c-7.795-7.733-12.621-18.45-12.621-30.293s4.826-22.56 12.618-30.291l128.003-128.003c7.733-7.795 18.45-12.621 30.293-12.621s22.56 4.826 30.291 12.618l0.003 0.003c7.795 7.733 12.621 18.45 12.621 30.293s-4.826 22.56-12.618 30.291l-0.003 0.003z" />
<glyph unicode="&#xe921;" glyph-name="arrows-merge" d="M456.96 478.293l-106.667 106.667c-7.753 7.753-18.463 12.548-30.293 12.548-23.661 0-42.841-19.181-42.841-42.841 0-11.83 4.795-22.541 12.548-30.293v0l34.133-33.707h-153.173v170.667c0 23.564-19.103 42.667-42.667 42.667s-42.667-19.103-42.667-42.667v0-426.667c0-23.564 19.103-42.667 42.667-42.667s42.667 19.103 42.667 42.667v0 170.667h153.173l-34.133-33.707c-7.795-7.733-12.621-18.45-12.621-30.293s4.826-22.56 12.618-30.291l0.003-0.003c7.733-7.795 18.45-12.621 30.293-12.621s22.56 4.826 30.291 12.618l106.67 106.67c3.773 3.937 6.808 8.616 8.859 13.791l0.101 0.289c2.024 4.793 3.201 10.366 3.201 16.213s-1.176 11.42-3.305 16.495l0.105-0.281c-2.152 5.464-5.187 10.143-8.974 14.095l0.014-0.015zM896 704c-23.564 0-42.667-19.103-42.667-42.667v0-170.667h-153.173l34.133 33.707c7.753 7.753 12.548 18.463 12.548 30.293 0 23.661-19.181 42.841-42.841 42.841-11.83 0-22.541-4.795-30.293-12.548l-106.667-106.667c-3.773-3.937-6.808-8.616-8.859-13.791l-0.101-0.289c-2.024-4.793-3.201-10.366-3.201-16.213s1.176-11.42 3.305-16.495l-0.105 0.281c2.152-5.464 5.187-10.143 8.974-14.095l-0.014 0.015 106.667-106.667c7.733-7.795 18.45-12.621 30.293-12.621s22.56 4.826 30.291 12.618l0.003 0.003c7.795 7.733 12.621 18.45 12.621 30.293s-4.826 22.56-12.618 30.291l-0.003 0.003-34.133 33.707h153.173v-170.667c0-23.564 19.103-42.667 42.667-42.667s42.667 19.103 42.667 42.667v0 426.667c0 23.564-19.103 42.667-42.667 42.667v0z" />
<glyph unicode="&#xe922;" glyph-name="arrows-maximize" d="M896 362.667c-23.564 0-42.667-19.103-42.667-42.667v0-153.173l-622.507 622.507h153.173c23.564 0 42.667 19.103 42.667 42.667s-19.103 42.667-42.667 42.667v0h-256c-5.873-0.073-11.435-1.322-16.489-3.52l0.275 0.107c-10.46-4.422-18.618-12.58-22.935-22.76l-0.105-0.28c-2.092-4.778-3.34-10.34-3.413-16.186v-256.027c0-23.564 19.103-42.667 42.667-42.667s42.667 19.103 42.667 42.667v0 153.173l622.507-622.507h-153.173c-23.564 0-42.667-19.103-42.667-42.667s19.103-42.667 42.667-42.667v0h256c5.873 0.073 11.435 1.322 16.489 3.52l-0.275-0.107c10.46 4.422 18.618 12.58 22.935 22.76l0.105 0.28c2.092 4.778 3.34 10.34 3.413 16.186v256.027c0 23.564-19.103 42.667-42.667 42.667v0z" />
<glyph unicode="&#xe923;" glyph-name="angle-right-b" d="M663.040 478.293l-241.493 241.067c-7.733 7.795-18.45 12.621-30.293 12.621s-22.56-4.826-30.291-12.618l-0.003-0.003c-7.668-7.712-12.407-18.343-12.407-30.080s4.74-22.368 12.409-30.082l-0.002 0.002 211.2-213.333-211.2-211.2c-7.668-7.712-12.407-18.343-12.407-30.080s4.74-22.368 12.409-30.082l-0.002 0.002c7.709-7.861 18.426-12.749 30.284-12.8h0.010c11.868 0.051 22.584 4.939 30.287 12.793l0.007 0.007 241.493 241.067c8.458 7.82 13.736 18.974 13.736 31.36s-5.278 23.54-13.707 31.334l-0.028 0.026z" />
<glyph unicode="&#xe924;" glyph-name="arrow-resize-diagonal" d="M935.253 848.213c-4.422 10.46-12.58 18.618-22.76 22.935l-0.28 0.105c-4.778 2.092-10.34 3.34-16.186 3.413h-256.027c-23.564 0-42.667-19.103-42.667-42.667s19.103-42.667 42.667-42.667v0h153.173l-622.507-622.507v153.173c0 23.564-19.103 42.667-42.667 42.667s-42.667-19.103-42.667-42.667v0-256c0.073-5.873 1.322-11.435 3.52-16.489l-0.107 0.275c4.422-10.46 12.58-18.618 22.76-22.935l0.28-0.105c4.778-2.092 10.34-3.34 16.186-3.413h256.027c23.564 0 42.667 19.103 42.667 42.667s-19.103 42.667-42.667 42.667v0h-153.173l622.507 622.507v-153.173c0-23.564 19.103-42.667 42.667-42.667s42.667 19.103 42.667 42.667v0 256c-0.073 5.873-1.322 11.435-3.52 16.489l0.107-0.275z" />
<glyph unicode="&#xe925;" glyph-name="arrow-random" d="M371.2 533.333c7.712-7.668 18.343-12.407 30.080-12.407s22.368 4.74 30.082 12.409l-0.002-0.002c7.668 7.712 12.407 18.343 12.407 30.080s-4.74 22.368-12.409 30.082l0.002-0.002-267.52 268.8c-7.753 7.753-18.463 12.548-30.293 12.548-23.661 0-42.841-19.181-42.841-42.841 0-11.83 4.795-22.541 12.548-30.293v0zM896 362.667c-23.564 0-42.667-19.103-42.667-42.667v0-153.173l-194.56 195.84c-7.862 7.862-18.723 12.725-30.72 12.725-23.994 0-43.445-19.451-43.445-43.445 0-11.997 4.863-22.858 12.725-30.72v0l195.84-194.56h-153.173c-23.564 0-42.667-19.103-42.667-42.667s19.103-42.667 42.667-42.667v0h256c5.873 0.073 11.435 1.322 16.489 3.52l-0.275-0.107c10.46 4.422 18.618 12.58 22.935 22.76l0.105 0.28c2.092 4.778 3.34 10.34 3.413 16.186v256.027c0 23.564-19.103 42.667-42.667 42.667v0zM935.253 848.213c-4.422 10.46-12.58 18.618-22.76 22.935l-0.28 0.105c-4.778 2.092-10.34 3.34-16.186 3.413h-256.027c-23.564 0-42.667-19.103-42.667-42.667s19.103-42.667 42.667-42.667v0h153.173l-695.467-695.040c-7.795-7.733-12.621-18.45-12.621-30.293s4.826-22.56 12.618-30.291l0.003-0.003c7.733-7.795 18.45-12.621 30.293-12.621s22.56 4.826 30.291 12.618l695.043 695.47v-153.173c0-23.564 19.103-42.667 42.667-42.667s42.667 19.103 42.667 42.667v0 256c-0.073 5.873-1.322 11.435-3.52 16.489l0.107-0.275z" />
<glyph unicode="&#xe926;" glyph-name="angle-left" d="M481.707 448l151.040 151.040c7.668 7.712 12.407 18.343 12.407 30.080s-4.74 22.368-12.409 30.082l0.002-0.002c-7.733 7.795-18.45 12.621-30.293 12.621s-22.56-4.826-30.291-12.618l-180.91-180.91c-7.795-7.733-12.621-18.45-12.621-30.293s4.826-22.56 12.618-30.291l0.003-0.003 180.907-183.040c7.709-7.648 18.326-12.374 30.047-12.374 0.087 0 0.173 0 0.26 0.001h-0.013c0.073 0 0.16-0.001 0.247-0.001 11.721 0 22.338 4.726 30.049 12.377l-0.003-0.003c7.668 7.712 12.407 18.343 12.407 30.080s-4.74 22.368-12.409 30.082l0.002-0.002z" />
<glyph unicode="&#xe927;" glyph-name="annoyed-alt" d="M625.493 381.44l-178.773-64c-16.541-6.125-28.117-21.765-28.117-40.109 0-23.399 18.836-42.399 42.172-42.664h0.025c5.207 0.006 10.192 0.944 14.802 2.656l-0.295-0.096 179.2 64c17.159 5.787 29.295 21.735 29.295 40.517 0 23.564-19.103 42.667-42.667 42.667-5.631 0-11.007-1.091-15.928-3.072l0.287 0.102zM454.827 594.773c-7.712 7.668-18.343 12.407-30.080 12.407s-22.368-4.74-30.082-12.409l0.002 0.002c-7.733-7.795-18.45-12.621-30.293-12.621s-22.56 4.826-30.291 12.618l-0.003 0.003c-7.712 7.668-18.343 12.407-30.080 12.407s-22.368-4.74-30.082-12.409l0.002 0.002c-7.795-7.733-12.621-18.45-12.621-30.293s4.826-22.56 12.618-30.291l0.003-0.003c23.158-23.13 55.135-37.434 90.453-37.434s67.296 14.304 90.455 37.435l-0.001-0.001c7.56 7.693 12.227 18.251 12.227 29.898 0 12.481-5.359 23.71-13.901 31.512l-0.033 0.030zM753.493 594.773c-7.712 7.668-18.343 12.407-30.080 12.407s-22.368-4.74-30.082-12.409l0.002 0.002c-7.733-7.795-18.45-12.621-30.293-12.621s-22.56 4.826-30.291 12.618l-0.003 0.003c-7.712 7.668-18.343 12.407-30.080 12.407s-22.368-4.74-30.082-12.409l0.002 0.002c-7.795-7.733-12.621-18.45-12.621-30.293s4.826-22.56 12.618-30.291l0.003-0.003c23.158-23.13 55.135-37.434 90.453-37.434s67.296 14.304 90.455 37.435l-0.001-0.001c7.56 7.693 12.227 18.251 12.227 29.898 0 12.481-5.359 23.71-13.901 31.512l-0.033 0.030zM512 874.667c-235.641 0-426.667-191.025-426.667-426.667s191.025-426.667 426.667-426.667c235.641 0 426.667 191.025 426.667 426.667v0c0 235.641-191.025 426.667-426.667 426.667v0zM512 106.667c-188.513 0-341.333 152.82-341.333 341.333s152.82 341.333 341.333 341.333c188.513 0 341.333-152.82 341.333-341.333v0c0-188.513-152.82-341.333-341.333-341.333v0z" />
<glyph unicode="&#xe928;" glyph-name="ball" d="M883.627 273.067l-69.973 69.973c-7.901 7.346-12.827 17.798-12.827 29.4 0 5.884 1.267 11.471 3.543 16.505l-0.102-0.252c14.25 29.88 22.71 64.899 23.039 101.859l0.001 0.115c0.095 0.641 0.149 1.381 0.149 2.133s-0.054 1.492-0.159 2.216l0.010-0.083c0.001 0.21 0.001 0.457 0.001 0.705 0 53.172-16.945 102.386-45.73 142.538l0.502-0.736c-57.268 79.383-131.282 143.157-217.165 187.001l-3.422 1.586c-38.331 19.186-83.513 30.418-131.317 30.418-81.893 0-156.088-32.96-210.043-86.337l0.027 0.026-28.587-28.587c-53.771-54.001-87.013-128.481-87.013-210.724 0-48.363 11.495-94.042 31.903-134.452l-0.783 1.709 4.267-7.253c-21.966-22.764-35.581-53.714-35.84-87.843v-0.050c0.543-70.279 57.641-127.042 127.996-127.042 24.612 0 47.602 6.946 67.115 18.986l-0.552-0.317c7.68-5.973 14.507-12.373 22.187-17.92 15.004-10.565 32.174-19.76 50.431-26.76l1.622-0.546h3.84c7.68-2.987 15.787-5.547 24.32-8.107h6.4c11.833-3.181 25.681-5.46 39.901-6.368l0.632-0.032h26.453c8.96 0 17.493 0 26.453 2.56h7.253c22.737 3.977 43.068 10.651 61.975 19.806l-1.388-0.606c4.717 1.954 10.195 3.089 15.938 3.089 11.558 0 22.042-4.595 29.725-12.059l62.283-62.283c26.089-26.178 62.11-42.444 101.931-42.666h0.042c33.429 0.37 63.563 14.172 85.319 36.252l16.228 16.228c23.292 23.185 37.706 55.272 37.706 90.725 0 33.727-13.044 64.407-34.363 87.271l0.070-0.076zM230.827 259.413c-23.564 0-42.667 19.103-42.667 42.667s19.103 42.667 42.667 42.667c23.564 0 42.667-19.103 42.667-42.667v0c0-23.564-19.103-42.667-42.667-42.667v0zM363.093 253.44l-11.093 8.533c4.248 11.943 6.742 25.72 6.826 40.068v0.039c0 70.692-57.308 128-128 128v0c-5.547 0-10.667 0-16.213 0l-3.84 6.827c-14.068 27.686-22.31 60.37-22.31 94.98 0 58.664 23.679 111.798 62.001 150.365l28.576 28.576c38.257 36.712 90.296 59.317 147.615 59.317 35.52 0 69.013-8.681 98.472-24.037l-1.18 0.56c73.084-37.065 133.928-88.492 180.808-150.994l0.952-1.326zM823.040 152.32l-15.787-16.213c-17.92-17.92-45.653-14.507-68.693 8.533l-62.293 61.867c-23.134 22.987-55.015 37.196-90.214 37.196-18.94 0-36.919-4.114-53.093-11.496l0.8 0.327c-12.374-6.213-26.737-10.842-41.868-13.128l-0.799-0.099c-6.833-1.368-14.688-2.15-22.726-2.15-0.71 0-1.42 0.006-2.127 0.018l0.106-0.001h-18.773l293.12 293.12c0.535-4.943 0.84-10.676 0.84-16.48 0-25.003-5.659-48.683-15.767-69.831l0.421 0.977c-7.055-15.373-11.169-33.353-11.169-52.293 0-35.199 14.208-67.080 37.202-90.221l-0.007 0.007 69.973-70.4c7.8-7.734 12.629-18.454 12.629-30.302 0-11.419-4.486-21.791-11.792-29.448l0.016 0.017z" />
<glyph unicode="&#xe929;" glyph-name="balance-scale" d="M979.807 370.234c-0.188 2.732-0.616 5.269-1.267 7.714l0.064-0.282-98.333 261.849c35.313 23.093 58.335 62.427 58.396 107.142v0.009c0 23.564-19.103 42.667-42.667 42.667s-42.667-19.103-42.667-42.667v0c-0.009-23.566-19.115-42.667-42.682-42.667-16.182 0-30.26 9.005-37.498 22.277l-0.112 0.223c-21.588 37.795-61.646 62.858-107.558 62.858-0.859 0-1.716-0.009-2.571-0.026l0.128 0.002h-108.373v42.667c0 23.564-19.103 42.667-42.667 42.667s-42.667-19.103-42.667-42.667v0-42.667h-108.373c-0.727 0.015-1.584 0.024-2.444 0.024-45.912 0-85.97-25.063-107.239-62.253l-0.319-0.605c-7.349-13.495-21.428-22.5-37.609-22.5-23.567 0-42.674 19.101-42.682 42.666v0.001c0 23.564-19.103 42.667-42.667 42.667s-42.667-19.103-42.667-42.667v0c0.061-44.724 23.083-84.058 57.908-106.851l0.488-0.299-98.332-261.849c-0.587-2.164-1.015-4.701-1.196-7.305l-0.007-0.127c-0.691-2.179-1.229-4.746-1.512-7.39l-0.016-0.178c0-0.396 0.115-0.76 0.117-1.156 0.013-0.562 0.128-1.081 0.166-1.641 1.425-93.016 77.162-167.872 170.383-167.872s168.958 74.856 170.381 167.739l0.002 0.134c0.036 0.56 0.154 1.078 0.166 1.641 0.003 0.396 0.117 0.76 0.117 1.156-0.298 2.821-0.836 5.388-1.603 7.855l0.077-0.287c-0.188 2.732-0.616 5.269-1.267 7.714l0.064-0.282-98.448 262.154c18.096 11.669 32.714 27.248 42.929 45.613l0.332 0.65c7.070 10.875 19.162 17.966 32.91 17.966 0.692 0 1.379-0.018 2.062-0.053l-0.096 0.004h108.373v-597.333h-128c-23.564 0-42.667-19.103-42.667-42.667s19.103-42.667 42.667-42.667v0h341.333c23.564 0 42.667 19.103 42.667 42.667s-19.103 42.667-42.667 42.667v0h-128v597.333h108.373c0.587 0.031 1.274 0.049 1.965 0.049 13.748 0 25.84-7.091 32.818-17.815l0.092-0.151c10.547-19.015 25.165-34.594 42.76-45.96l0.501-0.303-98.445-262.154c-0.587-2.164-1.015-4.701-1.196-7.305l-0.007-0.127c-0.691-2.179-1.229-4.746-1.512-7.39l-0.016-0.178c0-0.396 0.115-0.76 0.117-1.156 0.013-0.562 0.128-1.081 0.166-1.641 1.425-93.016 77.162-167.872 170.383-167.872s168.958 74.856 170.381 167.739l0.002 0.134c0.036 0.56 0.154 1.078 0.166 1.641 0.003 0.396 0.117 0.76 0.117 1.156-0.298 2.821-0.836 5.388-1.603 7.855l0.077-0.287zM213.333 582.164l66.406-176.831h-132.813zM286.833 320c-15.103-25.436-42.292-42.305-73.448-42.666h-0.052c-31.408 0.012-58.849 16.989-73.657 42.264l-0.218 0.403zM810.667 582.164l66.406-176.831h-132.813zM810.667 277.333c-31.408 0.012-58.849 16.989-73.657 42.264l-0.218 0.403h147.375c-15.103-25.436-42.292-42.305-73.448-42.666h-0.052z" />
<glyph unicode="&#xe92a;" glyph-name="backward" d="M881.92 710.4c-16.298 9.76-35.955 15.531-56.96 15.531s-40.662-5.771-57.472-15.815l0.512 0.284-170.667-98.133c-0.125 62.821-51.081 113.7-113.92 113.7-20.886 0-40.459-5.62-57.289-15.431l0.542 0.292-284.587-164.267c-34.197-20.086-56.791-56.684-56.791-98.56s22.594-78.474 56.257-98.269l0.534-0.291 284.587-164.267c16.329-9.636 35.98-15.329 56.96-15.329s40.631 5.693 57.491 15.618l-0.531-0.289c34.155 19.885 56.748 56.325 56.748 98.042 0 0.182 0 0.364-0.001 0.546v-0.028l170.667-98.56c16.282-9.556 35.838-15.245 56.713-15.36h0.033c0.005 0 0.011 0 0.018 0 21.103 0 40.834 5.87 57.651 16.066l-0.496-0.279c34.138 19.677 56.748 55.971 56.748 97.547 0 0.206-0.001 0.412-0.002 0.618v-0.032 328.533c0.001 0.174 0.002 0.38 0.002 0.586 0 41.576-22.611 77.871-56.206 97.259l-0.542 0.289zM512 283.733c0.001-0.106 0.002-0.232 0.002-0.358 0-10.369-5.604-19.429-13.949-24.317l-0.133-0.072c-4.119-2.33-9.046-3.703-14.293-3.703s-10.174 1.373-14.441 3.779l0.147-0.076-284.587 164.267c-8.595 5.037-14.276 14.228-14.276 24.747s5.681 19.71 14.141 24.674l0.135 0.073 284.587 164.267c4.1 2.408 9.031 3.83 14.293 3.83s10.193-1.422 14.428-3.903l-0.135 0.073c8.478-4.959 14.082-14.019 14.082-24.389 0-0.126-0.001-0.252-0.002-0.377v0.019zM853.333 283.733c-0.312-15.547-12.989-28.031-28.581-28.031-5.178 0-10.035 1.377-14.224 3.785l0.139-0.074-213.333 122.88v131.413l213.333 122.88c4.050 2.334 8.907 3.711 14.085 3.711 15.593 0 28.269-12.484 28.581-28.002v-0.029z" />
<glyph unicode="&#xe92b;" glyph-name="backspace" d="M810.667 746.667h-391.253c-35.333-0.032-67.31-14.375-90.452-37.545l-0.001-0.001-231.253-230.827c-7.795-7.733-12.621-18.45-12.621-30.293s4.826-22.56 12.618-30.291l0.003-0.003 231.253-230.827c23.143-23.171 55.12-37.515 90.447-37.547h391.26c70.692 0 128 57.308 128 128v0 341.333c0 70.692-57.308 128-128 128v0zM853.333 277.333c0-23.564-19.103-42.667-42.667-42.667v0h-391.253c-11.771 0.169-22.416 4.851-30.311 12.39l0.017-0.016-200.96 200.96 200.96 200.96c7.877 7.522 18.523 12.204 30.26 12.373h391.286c23.564 0 42.667-19.103 42.667-42.667v0zM712.96 563.627c-7.733 7.795-18.45 12.621-30.293 12.621s-22.56-4.826-30.291-12.618l-0.003-0.003-55.040-55.467-55.040 55.467c-7.753 7.753-18.463 12.548-30.293 12.548-23.661 0-42.841-19.181-42.841-42.841 0-11.83 4.795-22.541 12.548-30.293v0l55.467-55.040-55.467-55.040c-7.795-7.733-12.621-18.45-12.621-30.293s4.826-22.56 12.618-30.291l0.003-0.003c7.733-7.795 18.45-12.621 30.293-12.621s22.56 4.826 30.291 12.618l0.003 0.003 55.040 55.467 55.040-55.467c7.733-7.795 18.45-12.621 30.293-12.621s22.56 4.826 30.291 12.618l0.003 0.003c7.795 7.733 12.621 18.45 12.621 30.293s-4.826 22.56-12.618 30.291l-0.003 0.003-55.467 55.040 55.467 55.040c7.795 7.733 12.621 18.45 12.621 30.293s-4.826 22.56-12.618 30.291l-0.003 0.003z" />
<glyph unicode="&#xe92c;" glyph-name="award-alt" d="M512 917.333c-164.788-0.213-298.292-133.849-298.292-298.666 0-81.214 32.416-154.858 85.015-208.698l-0.056 0.057v-388.693c0.073-23.509 19.148-42.538 42.666-42.538 7.002 0 13.61 1.687 19.441 4.676l-0.24-0.112 151.467 75.52 151.467-75.52c5.581-2.92 12.183-4.65 19.186-4.693h0.014c0.041 0 0.089 0 0.137 0 8.323 0 16.090 2.383 22.654 6.504l-0.178-0.104c12.121 7.665 20.053 20.997 20.053 36.181 0 0.030 0 0.060 0 0.090v-0.005 388.693c52.543 53.782 84.959 127.426 84.959 208.64 0 164.817-133.504 298.453-298.271 298.666h-0.021zM640 90.453l-108.8 54.187c-5.59 2.877-12.198 4.564-19.2 4.564s-13.61-1.687-19.44-4.676l0.24 0.112-108.8-54.187v258.56c24.766-12 53.503-20.963 83.71-25.404l1.623-0.196v-46.080c0-23.564 19.103-42.667 42.667-42.667s42.667 19.103 42.667 42.667v0 46.080c31.83 4.637 60.567 13.6 87.123 26.376l-1.79-0.776zM512 405.333c-117.821 0-213.333 95.513-213.333 213.333s95.513 213.333 213.333 213.333c117.821 0 213.333-95.513 213.333-213.333v0c0-117.821-95.513-213.333-213.333-213.333v0z" />
<glyph unicode="&#xe92d;" glyph-name="atom" d="M512 490.667c-23.564 0-42.667-19.103-42.667-42.667s19.103-42.667 42.667-42.667c23.564 0 42.667 19.103 42.667 42.667v0c0 23.564-19.103 42.667-42.667 42.667v0zM837.12 448l4.693 5.973c57.6 79.36 71.253 152.32 39.68 207.36s-102.4 79.36-198.827 69.547h-7.68c-38.827 88.32-96.427 143.787-162.987 143.787s-124.16-55.467-162.56-145.067l-8.107 1.28c-96.427 9.813-167.253-14.507-198.827-69.547s-17.92-128 39.68-207.36l4.693-5.973-4.693-5.973c-57.6-79.36-71.253-152.32-39.68-207.36 28.16-46.933 82.347-71.68 156.16-71.68 13.227 0 26.88 0 42.667 2.133h7.68c38.827-88.32 96.427-143.787 162.987-143.787s124.16 55.467 162.56 145.067h7.68c14.507 0 28.16-2.133 42.667-2.133 75.52 0 130.987 24.747 157.867 71.68 31.573 55.040 17.92 128-39.68 207.36zM216.32 618.667c10.667 18.773 42.667 29.013 85.333 29.013h20.907c-5.93-22.006-11.168-49.076-14.619-76.7l-0.314-3.086c-22.777-17.316-42.953-34.786-61.97-53.434l0.103 0.101c-32.427 42.667-41.813 82.773-29.44 104.107zM216.32 277.333c-12.373 21.333 0 61.44 28.587 105.387 18.913-18.546 39.089-36.017 60.306-52.192l1.561-1.142c3.767-30.882 9.006-58.099 15.912-84.644l-0.979 4.431c-52.907-3.413-93.013 6.827-105.387 28.16zM512 789.333c23.893 0 52.48-28.16 76.8-78.080-31.413-9.128-56.917-18.279-81.742-28.726l4.942 1.846c-19.884 8.602-45.388 17.752-71.486 25.522l-5.314 1.358c24.32 49.92 52.907 78.080 76.8 78.080zM512 106.667c-23.893 0-52.48 28.16-76.8 78.080 31.413 9.128 56.917 18.279 81.742 28.726l-4.942-1.846c19.884-8.602 45.388-17.752 71.486-25.522l5.314-1.358c-24.32-49.92-52.907-78.080-76.8-78.080zM637.013 375.893c-19.627-13.653-39.68-26.453-61.013-38.827s-42.667-23.467-64-33.28q-32 14.933-64 33.28c-21.333 12.373-42.667 25.173-61.013 38.827-2.987 23.040-2.987 46.933-2.987 72.107s0 49.067 2.987 72.107c19.627 13.653 39.68 26.453 61.013 38.827s42.667 23.467 64 33.28q32-14.933 64-33.28c21.333-12.373 42.667-25.173 61.013-38.827 0-23.040 2.987-46.933 2.987-72.107s0-49.067-2.987-72.107zM807.68 277.333c-12.373-21.333-52.48-32-105.387-28.16 5.928 22.114 11.166 49.332 14.618 77.104l0.315 3.11c22.777 17.316 42.953 34.786 61.97 53.434l-0.103-0.101c31.573-43.947 40.96-84.053 28.587-105.387zM779.093 513.28c-18.913 18.546-39.089 36.017-60.306 52.192l-1.561 1.142c-3.766 30.712-9.004 57.781-15.909 84.176l0.976-4.389h20.907c42.667 0 73.813-10.24 85.333-29.013s2.133-60.16-29.44-104.107z" />
<glyph unicode="&#xe92e;" glyph-name="auto-flash" d="M762.453 593.067c-6.474 14.615-20.517 24.795-37.022 25.596l-0.098 0.004h-195.413l54.187 202.24c0.954 3.366 1.503 7.231 1.503 11.225 0 9.783-3.293 18.798-8.831 25.995l0.074-0.1c-7.877 10.163-20.087 16.641-33.81 16.641-0.114 0-0.227 0-0.341-0.001h-298.65c-0.435 0.016-0.947 0.025-1.461 0.025-19.628 0-36.16-13.253-41.136-31.299l-0.070-0.3-114.347-426.667c-0.936-3.335-1.474-7.164-1.474-11.119 0-23.564 19.103-42.667 42.667-42.667 0.518 0 1.035 0.009 1.549 0.028l-0.074-0.002h164.267l-77.227-287.573c-0.955-3.368-1.505-7.235-1.505-11.231 0-23.564 19.103-42.667 42.667-42.667 12.615 0 23.952 5.475 31.763 14.178l0.035 0.040 465.067 512c6.921 7.558 11.161 17.67 11.161 28.773 0 6.102-1.281 11.905-3.589 17.154l0.107-0.274zM344.747 222.72l46.080 170.667c1.14 3.667 1.797 7.883 1.797 12.253 0 9.706-3.241 18.656-8.7 25.825l0.076-0.104c-7.877 10.166-20.089 16.647-33.814 16.647-0.262 0-0.524-0.002-0.785-0.007l0.039 0.001h-163.84l91.307 341.333h210.347l-54.187-202.24c-0.936-3.335-1.474-7.164-1.474-11.119 0-23.564 19.103-42.667 42.667-42.667 0.518 0 1.035 0.009 1.549 0.028l-0.074-0.002h152.32zM810.667 405.333h-42.667c-70.692 0-128-57.308-128-128v0-213.333c0-23.564 19.103-42.667 42.667-42.667s42.667 19.103 42.667 42.667v0 85.333h128v-85.333c0-23.564 19.103-42.667 42.667-42.667s42.667 19.103 42.667 42.667v0 213.333c0 70.692-57.308 128-128 128v0zM853.333 234.667h-128v42.667c0 23.564 19.103 42.667 42.667 42.667v0h42.667c23.564 0 42.667-19.103 42.667-42.667v0z" />
<glyph unicode="&#xe92f;" glyph-name="bell-slash" d="M472.32 698.88c11.597 3.253 24.914 5.123 38.668 5.123 0.356 0 0.711-0.001 1.067-0.004h-0.054c94.257 0 170.667-76.41 170.667-170.667v0-57.173c0-23.564 19.103-42.667 42.667-42.667s42.667 19.103 42.667 42.667v0 57.173c-0.132 126.205-91.568 231.016-211.804 251.94l-1.529 0.22v46.507c0 23.564-19.103 42.667-42.667 42.667s-42.667-19.103-42.667-42.667v0-46.933l-19.2-3.413c-18.434-5.060-31.754-21.668-31.754-41.387 0-23.664 19.184-42.848 42.848-42.848 3.945 0 7.766 0.533 11.394 1.532l-0.301-0.071zM926.293 94.293l-768 768c-7.753 7.753-18.463 12.548-30.293 12.548-23.661 0-42.841-19.181-42.841-42.841 0-11.83 4.795-22.541 12.548-30.293v0l175.787-175.36c-11.071-27.574-17.493-59.541-17.493-93.008 0-0.002 0-0.003 0-0.005v0-135.68c-50.028-18.062-85.173-65.066-85.333-120.3v-85.353c0-23.564 19.103-42.667 42.667-42.667v0h133.973c20.352-73.135 86.359-125.909 164.693-125.909s144.342 52.775 164.407 124.709l0.286 1.2h73.813l115.2-115.627c7.733-7.795 18.45-12.621 30.293-12.621s22.56 4.826 30.291 12.618l0.003 0.003c7.795 7.733 12.621 18.45 12.621 30.293s-4.826 22.56-12.618 30.291l-0.003 0.003zM341.333 533.333c-0.311 3.514-0.488 7.603-0.488 11.733s0.177 8.219 0.525 12.259l-0.036-0.526 153.173-151.467h-153.173zM512 106.667c-31.22 0.194-58.443 17.125-73.169 42.264l-0.218 0.403h146.773c-14.943-25.542-42.166-42.472-73.359-42.667h-0.028zM256 234.667v42.667c0 23.564 19.103 42.667 42.667 42.667v0h281.173l85.333-85.333z" />
<glyph unicode="&#xe930;" glyph-name="bell-school" d="M896 618.667c-0.442 46.791-38.476 84.552-85.33 84.552-47.128 0-85.333-38.205-85.333-85.333 0-43.064 31.9-78.678 73.359-84.5l0.451-0.052c7.256-19.411 11.455-41.841 11.455-65.252 0-87.245-58.32-160.868-138.102-184.011l-1.353-0.336c-11.562 26.169-30.794 47.19-54.822 60.681l-0.644 0.332c41.191 50.776 66.133 116.19 66.133 187.43 0 164.949-133.718 298.667-298.667 298.667s-298.667-133.718-298.667-298.667c0-71.24 24.942-136.654 66.57-187.987l-0.437 0.556c-38.823-22.122-64.709-63.014-65.279-110l-0.001-0.080v-42.667c0-70.692 57.308-128 128-128v0h341.333c70.692 0 128 57.308 128 128v0 8.107c123.148 29.485 213.275 138.628 213.275 268.82 0 35.107-6.553 68.683-18.503 99.572l0.641-1.885c11.122 14.223 17.857 32.346 17.92 52.039v0.014zM597.333 192c0-23.564-19.103-42.667-42.667-42.667v0h-341.333c-23.564 0-42.667 19.103-42.667 42.667v0 42.667c0 23.564 19.103 42.667 42.667 42.667v0h17.493c43.677-26.814 96.571-42.696 153.173-42.696s109.496 15.882 154.467 43.432l-1.293-0.737h17.493c23.564 0 42.667-19.103 42.667-42.667v0zM384 320c-117.821 0-213.333 95.513-213.333 213.333s95.513 213.333 213.333 213.333c117.821 0 213.333-95.513 213.333-213.333v0c0-117.821-95.513-213.333-213.333-213.333v0zM384 576c-23.564 0-42.667-19.103-42.667-42.667s19.103-42.667 42.667-42.667c23.564 0 42.667 19.103 42.667 42.667v0c0 23.564-19.103 42.667-42.667 42.667v0z" />
<glyph unicode="&#xe931;" glyph-name="behance" d="M856.32 689.067h-216.32v-60.16h217.173zM810.667 275.2c-14.783-9.919-32.978-15.831-52.554-15.831-1.024 0-2.045 0.016-3.061 0.048l0.149-0.004c-2.959-0.327-6.391-0.513-9.866-0.513-24.053 0-46.022 8.925-62.774 23.645l0.107-0.092c-16.492 18.63-26.563 43.276-26.563 70.274 0 1.695 0.040 3.381 0.118 5.056l-0.009-0.237h282.453c0.442 5.856 0.695 12.683 0.695 19.569 0 23.347-2.898 46.017-8.355 67.669l0.407-1.905c-7.15 28.138-18.909 52.797-34.57 74.447l0.436-0.634c-16.055 21.429-36.3 38.811-59.62 51.16l-0.966 0.467c-24.053 12.123-52.424 19.222-82.454 19.222-1.012 0-2.023-0.008-3.032-0.024l0.152 0.002c-0.453 0.004-0.989 0.006-1.525 0.006-28.696 0-56.036-5.805-80.909-16.305l1.368 0.512c-24.439-10.458-45.273-24.865-62.689-42.635l-0.031-0.032c-17.306-18.050-31.078-39.641-40.105-63.561l-0.428-1.293c-8.924-23.589-14.090-50.859-14.090-79.336 0-0.759 0.004-1.516 0.011-2.273l-0.001 0.116c-0.018-1.091-0.029-2.379-0.029-3.669 0-28.364 5.014-55.557 14.204-80.741l-0.522 1.636c8.579-25.219 21.376-46.957 37.725-65.486l-0.179 0.206c16.98-18.291 37.778-32.788 61.149-42.257l1.144-0.41c23.446-9.204 50.597-14.539 78.994-14.539 1.329 0 2.655 0.012 3.979 0.035l-0.199-0.003c1.89-0.063 4.112-0.099 6.342-0.099 39.323 0 76.042 11.152 107.165 30.467l-0.867-0.501c33.586 24.074 58.256 58.719 69.254 99.007l0.293 1.26h-94.293c-5.23-13.634-14.437-24.769-26.188-32.269l-0.265-0.158zM664.32 450.987c6.932 21.74 22.31 39.067 42.18 48.434l0.487 0.206c11.734 5.414 25.462 8.572 39.928 8.572 0.963 0 1.923-0.014 2.879-0.042l-0.14 0.003c1.882 0.171 4.070 0.268 6.282 0.268 20.161 0 38.434-8.083 51.755-21.184l-0.010 0.010c13.971-16.998 23.574-38.085 26.805-61.213l0.075-0.654h-177.067c0.768 9.436 2.431 18.15 4.925 26.506l-0.232-0.906zM438.613 471.467c22.204 9.4 40.64 23.999 54.37 42.327l0.243 0.339c11.563 17.739 18.44 39.451 18.44 62.769 0 1.633-0.034 3.259-0.101 4.876l0.008-0.232c0.066 1.606 0.104 3.49 0.104 5.384 0 20.935-4.597 40.796-12.836 58.63l0.359-0.867c-7.806 17.483-19.766 31.908-34.667 42.452l-0.32 0.215c-15.384 10.697-33.634 18.467-53.341 22.059l-0.845 0.128c-19.851 4.356-42.653 6.851-66.037 6.851-1.384 0-2.766-0.009-4.145-0.026l0.209 0.002h-254.72v-536.747h260.267c0.060 0 0.131 0 0.202 0 24.949 0 49.134 3.269 72.15 9.402l-1.952-0.442c23.211 6.112 43.552 15.635 61.66 28.157l-0.647-0.423c17.925 12.533 32.349 28.869 42.316 47.905l0.35 0.735c9.992 19.207 15.852 41.94 15.852 66.041 0 1.533-0.024 3.060-0.071 4.581l0.005-0.223c0.034 1.177 0.053 2.562 0.053 3.952 0 30.295-9.099 58.464-24.713 81.925l0.34-0.543c-17.729 24.973-43.651 43.119-73.787 50.589l-0.88 0.185zM203.52 624.64h110.507c0.065 0 0.142 0 0.219 0 10.625 0 21.032-0.931 31.145-2.717l-1.071 0.157c9.78-1.482 18.558-4.783 26.33-9.56l-0.304 0.174c7.709-4.417 13.839-10.821 17.802-18.522l0.118-0.251c4.338-8.138 6.885-17.798 6.885-28.052 0-0.938-0.021-1.872-0.064-2.8l0.005 0.132c0.138-1.499 0.216-3.243 0.216-5.004 0-17.593-7.829-33.357-20.193-43.998l-0.076-0.064c-13.515-9.398-30.273-15.014-48.342-15.014-1.305 0-2.604 0.029-3.894 0.087l0.183-0.007h-119.467zM410.027 307.2c-4.504-8.809-11.028-16.017-18.99-21.205l-0.21-0.129c-7.964-5.032-17.25-8.876-27.174-10.993l-0.559-0.1c-9.326-2.181-20.035-3.431-31.035-3.431-0.789 0-1.577 0.006-2.363 0.019l0.119-0.002h-128v147.2h128c1.337 0.062 2.904 0.098 4.48 0.098 21.418 0 41.3-6.576 57.738-17.818l-0.351 0.227c14.379-12.943 23.38-31.618 23.38-52.395 0-2.434-0.124-4.839-0.365-7.209l0.025 0.298c0.231-2.216 0.363-4.789 0.363-7.392 0-9.771-1.856-19.109-5.234-27.68l0.178 0.512z" />
<glyph unicode="&#xe932;" glyph-name="behance-alt" d="M943.292 318.648c-3.182 0.852-6.835 1.342-10.602 1.342-19.816 0-36.47-13.544-41.208-31.879l-0.065-0.295c-14.751-55.559-64.592-95.835-123.84-95.835-70.655 0-127.931 57.277-127.931 127.931 0 0.025 0 0.049 0 0.074v-0.004 42.667h298.667c0.003 0 0.007 0 0.011 0 23.558 0 42.656 19.098 42.656 42.656 0 0.004 0 0.008 0 0.012v-0.001c0 117.821-95.513 213.333-213.333 213.333s-213.333-95.513-213.333-213.333v0-85.333c0-0.021 0-0.046 0-0.071 0-117.782 95.481-213.264 213.264-213.264 98.916 0 182.103 67.342 206.215 158.681l0.334 1.487c0.837 3.156 1.318 6.78 1.318 10.516 0 19.82-13.528 36.481-31.854 41.252l-0.296 0.065zM767.646 533.315c35.25-0.014 67.179-14.222 90.384-37.218l-0.009 0.009c12.983-13.267 23.158-29.339 29.528-47.217l0.282-0.908h-240.321c17.989 50.008 64.935 85.157 120.115 85.333h0.021zM682.313 661.315h170.667c23.564 0 42.667 19.103 42.667 42.667s-19.103 42.667-42.667 42.667v0h-170.667c-23.564 0-42.667-19.103-42.667-42.667s19.103-42.667 42.667-42.667v0zM422.814 460.049c28.595 30.361 46.168 71.382 46.168 116.508 0 93.939-76.153 170.092-170.092 170.092-0.203 0-0.406 0-0.609-0.001h-213.301c-0.003 0-0.007 0-0.012 0-23.558 0-42.655-19.097-42.655-42.655 0-0.004 0-0.008 0-0.012v0.001-554.667c0-0.003 0-0.007 0-0.011 0-23.558 19.098-42.656 42.656-42.656 0.004 0 0.008 0 0.012 0h234.666c0.103 0 0.225 0 0.346 0 105.85 0 191.659 85.809 191.659 191.659 0 67.692-35.093 127.187-88.078 161.286l-0.759 0.457zM127.646 661.315h170.667c47.128 0 85.333-38.205 85.333-85.333s-38.205-85.333-85.333-85.333v0h-170.667zM319.646 191.981h-192v213.333h192c58.91 0 106.667-47.756 106.667-106.667s-47.756-106.667-106.667-106.667v0z" />
<glyph unicode="&#xe933;" glyph-name="bed" d="M298.667 426.667c70.692 0 128 57.308 128 128s-57.308 128-128 128c-70.692 0-128-57.308-128-128v0c0-70.692 57.308-128 128-128v0zM298.667 597.333c23.564 0 42.667-19.103 42.667-42.667s-19.103-42.667-42.667-42.667c-23.564 0-42.667 19.103-42.667 42.667v0c0 23.564 19.103 42.667 42.667 42.667v0zM853.333 682.667h-341.333c-23.564 0-42.667-19.103-42.667-42.667v0-256h-341.333v341.333c0 23.564-19.103 42.667-42.667 42.667s-42.667-19.103-42.667-42.667v0-554.667c0-23.564 19.103-42.667 42.667-42.667s42.667 19.103 42.667 42.667v0 128h768v-128c0-23.564 19.103-42.667 42.667-42.667s42.667 19.103 42.667 42.667v0 384c0 70.692-57.308 128-128 128v0zM896 384h-341.333v213.333h298.667c23.564 0 42.667-19.103 42.667-42.667v0z" />
<glyph unicode="&#xe934;" glyph-name="blogger" d="M414.297 513.703h95.523c18.164 0 32.889 14.725 32.889 32.889s-14.725 32.889-32.889 32.889h-95.523c-18.164 0-32.889-14.725-32.889-32.889s14.725-32.889 32.889-32.889v0zM828.943 874.594h-634.596c-60.311-0.229-109.14-49.059-109.367-109.348v-634.613c0.226-60.312 49.056-109.144 109.346-109.373h634.613c60.314 0.222 109.148 49.054 109.375 109.345v634.619c-0.225 60.313-49.057 109.145-109.348 109.37h-0.022zM783.18 461.675l-0.838-114.151c-0.716-94.732-77.523-171.287-172.283-171.596h-197.961c-94.917 0.177-171.863 76.87-172.45 171.673v200.348c0.527 94.934 77.478 171.719 172.424 171.979h120.504c57.445-10.221 105.162-45.028 132.642-92.927l0.49-0.927c9.088-16.916 14.717-36.9 15.432-58.131l0.006-0.223c2.875-21.571 4.388-37.599 14.083-46.482 13.625-12.352 64.31-4.031 74.333-11.88l7.63-5.966 4.646-9.458 1.536-7.575zM608.374 382.148h-194.077c-0.291 0.010-0.634 0.015-0.978 0.015-17.681 0-32.015-14.334-32.015-32.015s14.334-32.015 32.015-32.015c0.344 0 0.686 0.005 1.028 0.016l-0.050-0.001h194.078c0.241-0.007 0.525-0.010 0.81-0.010 17.679 0 32.010 14.331 32.010 32.010s-14.331 32.010-32.010 32.010c-0.285 0-0.569-0.004-0.851-0.011l0.042 0.001z" />
<glyph unicode="&#xe935;" glyph-name="bluetooth-b" d="M572.16 448l162.133 161.707c7.795 7.733 12.621 18.45 12.621 30.293s-4.826 22.56-12.618 30.291l-192.003 192.003c-3.937 3.773-8.616 6.808-13.791 8.859l-0.289 0.101c-4.793 2.024-10.366 3.201-16.213 3.201s-11.42-1.176-16.495-3.305l0.281 0.105c-10.46-4.422-18.618-12.58-22.935-22.76l-0.105-0.28c-2.092-4.778-3.34-10.34-3.413-16.186v-281.2l-119.040 119.467c-7.753 7.753-18.463 12.548-30.293 12.548-23.661 0-42.841-19.181-42.841-42.841 0-11.83 4.795-22.541 12.548-30.293v0l162.133-161.707-162.133-161.707c-7.753-7.753-12.548-18.463-12.548-30.293 0-23.661 19.181-42.841 42.841-42.841 11.83 0 22.541 4.795 30.293 12.548v0l119.040 119.467v-281.173c0.073-5.873 1.322-11.435 3.52-16.489l-0.107 0.275c4.422-10.46 12.58-18.618 22.76-22.935l0.28-0.105c4.771-2.163 10.345-3.423 16.213-3.423s11.443 1.26 16.466 3.525l-0.253-0.102c5.464 2.152 10.143 5.187 14.095 8.974l-0.015-0.014 192 192c7.795 7.733 12.621 18.45 12.621 30.293s-4.826 22.56-12.618 30.291l-0.003 0.003zM554.667 729.173l89.173-89.173-89.173-89.173zM554.667 166.827v178.347l89.173-89.173z" />
<glyph unicode="&#xe936;" glyph-name="bold" d="M704 554.667c0 82.475-66.859 149.333-149.333 149.333v0h-192c-23.564 0-42.667-19.103-42.667-42.667v0-426.667c0-23.564 19.103-42.667 42.667-42.667v0h192c0.192-0.001 0.42-0.001 0.647-0.001 82.239 0 148.907 66.668 148.907 148.907 0 42.023-17.408 79.981-45.405 107.055l-0.041 0.040c27.819 27.072 45.112 64.839 45.227 106.645v0.022zM554.667 277.333h-149.333v128h149.333c35.346 0 64-28.654 64-64s-28.654-64-64-64v0zM554.667 490.667h-149.333v128h149.333c35.346 0 64-28.654 64-64s-28.654-64-64-64v0z" />
<glyph unicode="&#xe937;" glyph-name="bolt-alt" d="M848.64 552.533c-7.163 13.992-21.462 23.415-37.966 23.467h-213.34v256c0.032 0.623 0.051 1.352 0.051 2.085 0 18.855-12.23 34.853-29.19 40.495l-0.301 0.087c-3.981 1.355-8.566 2.137-13.335 2.137-14.099 0-26.601-6.839-34.369-17.38l-0.083-0.117-341.333-469.333c-4.744-6.779-7.58-15.197-7.58-24.277 0-6.685 1.537-13.011 4.278-18.643l-0.111 0.253c6.107-15.562 20.667-26.533 37.882-27.303l0.091-0.003h213.333v-256c0.014-18.823 12.215-34.793 29.139-40.446l0.301-0.087c3.938-1.266 8.475-2.039 13.178-2.133l0.048-0.001c0.033 0 0.072 0 0.111 0 14.097 0 26.598 6.837 34.367 17.376l0.083 0.117 341.333 469.333c5.048 6.922 8.076 15.597 8.076 24.979 0 7.079-1.724 13.755-4.775 19.632l0.112-0.237zM512 195.413v167.253c0 23.564-19.103 42.667-42.667 42.667v0h-170.667l213.333 295.253v-167.253c0-23.564 19.103-42.667 42.667-42.667v0h170.667z" />
<glyph unicode="&#xe938;" glyph-name="bolt-slash" d="M369.92 779.52c3.255-0.891 6.992-1.402 10.848-1.402 11.131 0 21.266 4.262 28.862 11.243l-0.031-0.028h217.6l-54.187-202.24c-0.954-3.366-1.503-7.231-1.503-11.225 0-9.783 3.293-18.798 8.831-25.995l-0.074 0.1c7.857-10.136 20.023-16.606 33.701-16.64h154.033l-48.213-52.907c-6.816-7.532-10.988-17.57-10.988-28.581 0-12.5 5.375-23.744 13.941-31.548l0.034-0.031c7.521-6.855 17.56-11.064 28.581-11.093h0.006c12.513 0.031 23.756 5.443 31.541 14.043l0.033 0.037 113.067 124.16c6.828 7.535 11.008 17.581 11.008 28.603 0 23.564-19.103 42.667-42.667 42.667-0.42 0-0.839-0.006-1.256-0.018l0.061 0.001h-193.707l55.893 202.24c0.885 3.245 1.393 6.971 1.393 10.815 0 9.966-3.417 19.133-9.142 26.395l0.069-0.091c-7.877 10.171-20.092 16.656-33.821 16.656-0.41 0-0.818-0.006-1.225-0.017l0.060 0.001h-298.667c-0.435 0.016-0.947 0.025-1.461 0.025-19.628 0-36.16-13.253-41.136-31.299l-0.070-0.3v-11.093c-1.033-3.497-1.627-7.515-1.627-11.671 0-19.121 12.578-35.305 29.912-40.727l0.302-0.082zM924.587 94.293l-768 768c-6.952 5.117-15.685 8.189-25.135 8.189-23.564 0-42.667-19.103-42.667-42.667 0-9.878 3.357-18.973 8.993-26.204l-0.071 0.095 184.32-183.040-53.76-202.24c-0.885-3.245-1.393-6.971-1.393-10.815 0-9.966 3.417-19.133 9.142-26.395l-0.069 0.091c7.857-10.136 20.023-16.606 33.701-16.64h163.846l-77.227-287.573c-0.934-3.331-1.471-7.156-1.471-11.106 0-16.13 8.951-30.169 22.156-37.423l0.221-0.111c5.859-3.224 12.841-5.121 20.267-5.121 0.075 0 0.15 0 0.225 0.001h-0.012c12.513 0.031 23.756 5.443 31.541 14.043l0.033 0.037 206.933 227.84 229.547-229.547c7.733-7.795 18.45-12.621 30.293-12.621s22.56 4.826 30.291 12.618l0.003 0.003c7.795 7.733 12.621 18.45 12.621 30.293s-4.826 22.56-12.618 30.291l-0.003 0.003zM325.12 448l26.88 99.84 99.84-99.84zM484.267 222.72l42.667 151.893 51.2-50.773z" />
<glyph unicode="&#xe939;" glyph-name="bolt" d="M847.787 593.067c-6.474 14.615-20.517 24.795-37.022 25.596l-0.098 0.004h-195.413l54.187 202.24c0.954 3.366 1.503 7.231 1.503 11.225 0 9.783-3.293 18.798-8.831 25.995l0.074-0.1c-7.857 10.136-20.023 16.606-33.701 16.64h-298.673c-0.435 0.016-0.947 0.025-1.461 0.025-19.628 0-36.16-13.253-41.136-31.299l-0.070-0.3-114.347-426.667c-0.954-3.366-1.503-7.231-1.503-11.225 0-9.783 3.293-18.798 8.831-25.995l-0.074 0.1c7.877-10.163 20.087-16.641 33.81-16.641 0.114 0 0.227 0 0.341 0.001h165.103l-77.227-287.573c-0.955-3.368-1.505-7.235-1.505-11.231 0-23.564 19.103-42.667 42.667-42.667 12.615 0 23.952 5.475 31.763 14.178l0.035 0.040 465.067 512c6.921 7.558 11.161 17.67 11.161 28.773 0 6.102-1.281 11.905-3.589 17.154l0.107-0.274zM430.080 222.72l45.653 170.667c0.954 3.366 1.503 7.231 1.503 11.225 0 9.783-3.293 18.798-8.831 25.995l0.074-0.1c-7.857 10.136-20.023 16.606-33.701 16.64h-163.846l91.307 342.187h210.347l-54.187-202.24c-0.936-3.335-1.474-7.164-1.474-11.119 0-23.564 19.103-42.667 42.667-42.667 0.518 0 1.035 0.009 1.549 0.028l-0.074-0.002h152.32z" />
<glyph unicode="&#xe93a;" glyph-name="blogger-alt" d="M596.958 405.315h-170.667c-23.564 0-42.667-19.103-42.667-42.667s19.103-42.667 42.667-42.667v0h170.667c23.564 0 42.667 19.103 42.667 42.667s-19.103 42.667-42.667 42.667v0zM426.292 490.648h42.667c23.564 0 42.667 19.103 42.667 42.667s-19.103 42.667-42.667 42.667v0h-42.667c-23.564 0-42.667-19.103-42.667-42.667s19.103-42.667 42.667-42.667v0zM682.292 533.357v42.624c-0.097 94.218-76.449 170.57-170.657 170.667h-85.343c-117.763-0.143-213.19-95.57-213.333-213.32v-170.681c0.143-117.763 95.57-213.19 213.32-213.333h170.68c117.763 0.143 213.19 95.57 213.333 213.32v42.681c-0.091 70.664-57.339 127.927-127.989 128.042h-0.011zM682.292 533.315v-0.043l-42.667 0.043zM724.958 362.648c-0.080-70.66-57.339-127.92-127.992-128h-170.674c-70.66 0.080-127.92 57.339-128 127.992v170.675c0.080 70.66 57.339 127.92 127.992 128h85.341c47.103-0.063 85.27-38.23 85.333-85.327v-42.673c0.063-47.103 38.23-85.27 85.327-85.333h0.006c23.558-0.016 42.65-19.109 42.667-42.665v-0.002zM852.958 917.315h-682.667c-70.66-0.080-127.92-57.339-128-127.992v-682.675c0.080-70.66 57.339-127.92 127.992-128h682.674c70.66 0.080 127.92 57.339 128 127.992v682.675c-0.080 70.66-57.339 127.92-127.992 128h-0.008zM895.625 106.648c-0.016-23.558-19.109-42.65-42.665-42.667h-682.668c-23.558 0.016-42.65 19.109-42.667 42.665v682.669c0.016 23.558 19.109 42.65 42.665 42.667h682.668c23.558-0.016 42.65-19.109 42.667-42.665v-0.002z" />
<glyph unicode="&#xe93b;" glyph-name="black-berry" d="M512 874.667c-235.641 0-426.667-191.025-426.667-426.667s191.025-426.667 426.667-426.667c235.641 0 426.667 191.025 426.667 426.667v0c0 235.641-191.025 426.667-426.667 426.667v0zM306.773 390.4h-81.92l22.187 102.827h78.507c51.2 0 63.147-24.747 63.147-44.8 0-27.733-18.347-58.027-81.92-58.027zM334.933 545.707h-81.493l22.187 102.827h78.507c50.773 0 62.72-25.173 62.72-42.667 0-29.867-17.92-60.16-81.92-60.16zM494.933 228.693h-81.92l22.613 103.253h78.507c50.773 0 62.72-25.173 62.72-45.227 0-27.733-17.92-58.027-81.92-58.027zM525.227 390.4h-81.493l22.187 102.827h78.507c50.773 0 62.72-24.747 62.72-44.8 0-27.733-17.92-58.027-81.92-58.027zM554.667 545.707h-82.773l22.187 102.827h78.507c51.2 0 63.147-25.173 63.147-42.667 0-29.867-18.347-60.16-81.067-60.16zM714.24 306.347h-82.347l22.187 103.253h78.507c50.773 0 63.147-25.173 63.147-45.227 0-27.733-18.347-58.027-82.347-58.027zM744.96 453.12h-82.773l20.48 103.253h78.507c51.2 0 63.147-25.173 63.147-42.667 1.707-30.293-16.64-60.587-80.213-60.587z" />
<glyph unicode="&#xe93c;" glyph-name="atm-card" d="M298.667 320h128c23.564 0 42.667 19.103 42.667 42.667s-19.103 42.667-42.667 42.667v0h-128c-23.564 0-42.667-19.103-42.667-42.667s19.103-42.667 42.667-42.667v0zM810.667 746.667h-597.333c-70.692 0-128-57.308-128-128v0-384c0-70.692 57.308-128 128-128v0h597.333c70.692 0 128 57.308 128 128v0 384c0 70.692-57.308 128-128 128v0zM853.333 234.667c0-23.564-19.103-42.667-42.667-42.667v0h-597.333c-23.564 0-42.667 19.103-42.667 42.667v0 256h682.667zM853.333 576h-682.667v42.667c0 23.564 19.103 42.667 42.667 42.667v0h597.333c23.564 0 42.667-19.103 42.667-42.667v0z" />
<glyph unicode="&#xe93d;" glyph-name="arrows-h-alt" d="M935.253 464.213c-2.152 5.464-5.187 10.143-8.974 14.095l0.014-0.015-106.667 106.667c-7.753 7.753-18.463 12.548-30.293 12.548-23.661 0-42.841-19.181-42.841-42.841 0-11.83 4.795-22.541 12.548-30.293v0l34.133-33.707h-195.84c-23.564 0-42.667-19.103-42.667-42.667s19.103-42.667 42.667-42.667v0h195.84l-34.133-33.707c-7.795-7.733-12.621-18.45-12.621-30.293s4.826-22.56 12.618-30.291l0.003-0.003c7.733-7.795 18.45-12.621 30.293-12.621s22.56 4.826 30.291 12.618l106.67 106.67c3.773 3.937 6.808 8.616 8.859 13.791l0.101 0.289c2.024 4.793 3.201 10.366 3.201 16.213s-1.176 11.42-3.305 16.495l0.105-0.281zM426.667 490.667h-195.84l34.133 33.707c7.753 7.753 12.548 18.463 12.548 30.293 0 23.661-19.181 42.841-42.841 42.841-11.83 0-22.541-4.795-30.293-12.548l-106.667-106.667c-3.773-3.937-6.808-8.616-8.859-13.791l-0.101-0.289c-2.024-4.793-3.201-10.366-3.201-16.213s1.176-11.42 3.305-16.495l-0.105 0.281c2.152-5.464 5.187-10.143 8.974-14.095l-0.014 0.015 106.667-106.667c7.733-7.795 18.45-12.621 30.293-12.621s22.56 4.826 30.291 12.618l0.003 0.003c7.795 7.733 12.621 18.45 12.621 30.293s-4.826 22.56-12.618 30.291l-0.003 0.003-34.133 33.707h195.84c23.564 0 42.667 19.103 42.667 42.667s-19.103 42.667-42.667 42.667v0z" />
<glyph unicode="&#xe93e;" glyph-name="arrow-up" d="M755.627 478.293l-213.333 213.333c-3.937 3.773-8.616 6.808-13.791 8.859l-0.289 0.101c-4.793 2.024-10.366 3.201-16.213 3.201s-11.42-1.176-16.495-3.305l0.281 0.105c-5.464-2.152-10.143-5.187-14.095-8.974l0.015 0.014-213.333-213.333c-7.753-7.753-12.548-18.463-12.548-30.293 0-23.661 19.181-42.841 42.841-42.841 11.83 0 22.541 4.795 30.293 12.548v0l140.373 140.8v-323.84c0-23.564 19.103-42.667 42.667-42.667s42.667 19.103 42.667 42.667v0 323.84l140.373-140.8c7.733-7.795 18.45-12.621 30.293-12.621s22.56 4.826 30.291 12.618l0.003 0.003c7.795 7.733 12.621 18.45 12.621 30.293s-4.826 22.56-12.618 30.291l-0.003 0.003z" />
<glyph unicode="&#xe93f;" glyph-name="arrow-up-right" d="M764.587 677.547c-4.422 10.46-12.58 18.618-22.76 22.935l-0.28 0.105c-4.778 2.092-10.34 3.34-16.186 3.413h-426.694c-23.564 0-42.667-19.103-42.667-42.667s19.103-42.667 42.667-42.667v0h323.84l-354.133-353.707c-7.795-7.733-12.621-18.45-12.621-30.293s4.826-22.56 12.618-30.291l0.003-0.003c7.733-7.795 18.45-12.621 30.293-12.621s22.56 4.826 30.291 12.618l0.003 0.003 353.707 354.133v-323.84c0-23.564 19.103-42.667 42.667-42.667s42.667 19.103 42.667 42.667v0 426.667c-0.073 5.873-1.322 11.435-3.52 16.489l0.107-0.275z" />
<glyph unicode="&#xe940;" glyph-name="bookmark" d="M682.667 874.667h-341.333c-70.692 0-128-57.308-128-128v0-682.667c0-0.050 0-0.11 0-0.169 0-15.71 8.49-29.436 21.132-36.842l0.201-0.109c6.12-3.594 13.479-5.716 21.333-5.716s15.214 2.123 21.535 5.825l-0.201-0.109 234.667 135.68 234.667-135.68c6.049-3.489 13.303-5.548 21.039-5.548 0.104 0 0.207 0 0.311 0.001h-0.016c0.088-0.001 0.191-0.001 0.295-0.001 7.735 0 14.99 2.058 21.246 5.658l-0.207-0.11c12.844 7.514 21.334 21.241 21.334 36.951 0 0.060 0 0.119 0 0.179v-0.009 682.667c0 70.692-57.308 128-128 128v0zM725.333 137.813l-192 110.933c-6.12 3.594-13.479 5.716-21.333 5.716s-15.214-2.123-21.535-5.825l0.201 0.109-192-110.933v608.853c0 23.564 19.103 42.667 42.667 42.667v0h341.333c23.564 0 42.667-19.103 42.667-42.667v0z" />
<glyph unicode="&#xe941;" glyph-name="book" d="M640 704h-256c-23.564 0-42.667-19.103-42.667-42.667v0-170.667c0-23.564 19.103-42.667 42.667-42.667v0h256c23.564 0 42.667 19.103 42.667 42.667v0 170.667c0 23.564-19.103 42.667-42.667 42.667v0zM597.333 533.333h-170.667v85.333h170.667zM725.333 874.667h-512c-23.564 0-42.667-19.103-42.667-42.667v0-768c0-23.564 19.103-42.667 42.667-42.667v0h512c70.692 0 128 57.308 128 128v0 597.333c0 70.692-57.308 128-128 128v0zM768 149.333c0-23.564-19.103-42.667-42.667-42.667v0h-469.333v682.667h469.333c23.564 0 42.667-19.103 42.667-42.667v0z" />
<glyph unicode="&#xe942;" glyph-name="book-reader" d="M861.013 525.227c-27.182 5.161-58.449 8.113-90.405 8.113-0.917 0-1.834-0.002-2.75-0.007l0.142 0.001c-17.92 0-35.413 0-52.907-3.413-21.815 28.904-48.986 52.532-80.192 69.742l-1.301 0.658c26.426 28.787 42.633 67.324 42.667 109.646v0.007c0 90.958-73.736 164.693-164.693 164.693s-164.693-73.736-164.693-164.693v0c0.034-42.329 16.241-80.867 42.774-109.772l-0.108 0.119c-32.346-17.974-59.469-41.42-81.044-69.368l-0.449-0.605c-16.64 2.987-34.133 2.987-52.053 2.987-32.977-0.132-65.11-3.387-96.225-9.484l3.212 0.524c-20.035-3.762-34.992-21.12-34.992-41.971 0-0.245 0.002-0.489 0.006-0.733v0.037-352c0-0.021 0-0.045 0-0.069 0-13.146 5.945-24.903 15.293-32.73l0.067-0.054c7.373-6.249 16.995-10.048 27.504-10.048 2.645 0 5.233 0.241 7.744 0.701l-0.262-0.040c23.025 5.255 49.73 8.636 77.093 9.375l0.56 0.012c0.137 0 0.3 0 0.462 0 86.396 0 166.728-25.964 233.618-70.516l-1.547 0.969 5.547-2.133c5.275-2.35 11.423-3.755 17.889-3.84h0.031c4.298 0.055 8.397 0.833 12.205 2.215l-0.258-0.082h2.987l5.547 2.133c65.899 44.633 147.162 71.254 234.644 71.254 0.308 0 0.616 0 0.924-0.001h-0.048c27.55-0.132 54.367-2.922 80.311-8.125l-2.658 0.445c2.25-0.421 4.838-0.661 7.483-0.661 10.509 0 20.13 3.799 27.566 10.099l-0.062-0.051c9.415 7.881 15.36 19.638 15.36 32.784 0 0.024 0 0.049 0 0.073v-0.004 352c-0.079 20.784-15.006 38.059-34.722 41.772l-0.265 0.041zM512 789.333c41.255-3.123 73.545-37.364 73.545-79.147s-32.29-76.024-73.278-79.13l-0.267-0.016c-41.255 3.123-73.545 37.364-73.545 79.147s32.29 76.024 73.278 79.13l0.267 0.016zM469.333 135.253c-62.567 29.624-135.929 46.924-213.33 46.933h-0.003c-14.080 0-28.16 0-42.667-2.133v267.947c13.708 1.622 29.585 2.547 45.679 2.547 21.826 0 43.254-1.702 64.16-4.98l-2.319 0.3h4.693c54.197-10.166 102.46-29.185 145.646-55.674l-1.859 1.061zM512 465.067c-16.217 9.597-35.569 19.317-55.584 27.776l-3.296 1.237h-2.56c-14.080 5.547-28.16 11.093-42.667 15.36 28.32 22.695 64.54 36.599 103.991 37.119l0.116 0.001c39.466-0.258 75.703-13.872 104.47-36.543l-0.363 0.276c-39.9-12.605-74.359-27.943-106.668-46.59l2.562 1.364zM810.667 180.053c-14.838 1.579-32.054 2.48-49.48 2.48-74.903 0-145.92-16.639-209.556-46.423l3.036 1.277v256c41.379 24.784 89.745 42.992 141.336 51.711l2.45 0.342h8.533c18.53 3.036 39.885 4.771 61.646 4.771 14.806 0 29.425-0.803 43.815-2.368l-1.781 0.157z" />
<glyph unicode="&#xe943;" glyph-name="book-open" d="M903.253 872.107c-27.758 5.025-59.779 7.968-92.462 8.106h-0.125c-0.134 0-0.293 0-0.453 0-110.764 0-213.91-32.617-300.356-88.771l2.142 1.304c-83.56 53.541-185.508 85.346-294.884 85.346-1.33 0-2.658-0.005-3.986-0.014l0.203 0.001c-32.807-0.139-64.828-3.082-95.959-8.602l3.372 0.495c-20.242-3.585-35.418-21.043-35.418-42.046 0-0.218 0.002-0.436 0.005-0.653v0.033-512c-0.003-0.185-0.005-0.403-0.005-0.622 0-23.564 19.103-42.667 42.667-42.667 2.564 0 5.076 0.226 7.516 0.66l-0.258-0.038c23.855 4.338 51.309 6.818 79.342 6.818 102.435 0 197.135-33.118 273.978-89.23l-1.319 0.919 5.12-2.987h4.693c4.411-1.889 9.544-2.987 14.933-2.987s10.522 1.098 15.187 3.083l-0.254-0.096h4.693l5.12 2.987c76.534 57.532 173.158 92.134 277.863 92.134 26.178 0 51.85-2.163 76.849-6.32l-2.712 0.372c2.182-0.396 4.694-0.622 7.258-0.622 23.564 0 42.667 19.103 42.667 42.667 0 0.219-0.002 0.437-0.005 0.655v-0.033 512c-0.951 20.194-15.804 36.654-35.157 40.069l-0.257 0.038zM469.333 305.067c-74.116 39.777-162.16 63.147-255.661 63.147-0.119 0-0.238 0-0.357 0h0.018c-14.080 0-28.16 0-42.667 0v426.667c6.376 0.391 13.828 0.614 21.333 0.614s14.957-0.223 22.352-0.663l-1.018 0.048c0.152 0 0.332 0 0.512 0 95.146 0 183.593-28.677 257.171-77.859l-1.683 1.059zM853.333 366.507c-14.507 0-28.587 0-42.667 0-0.101 0-0.22 0-0.339 0-93.502 0-181.545-23.369-258.608-64.586l2.947 1.439v414.72c71.895 48.123 160.342 76.8 255.488 76.8 0.18 0 0.36 0 0.54 0h-0.028c6.376 0.391 13.828 0.614 21.333 0.614s14.957-0.223 22.352-0.663l-1.018 0.048zM903.253 189.44c-27.758 5.025-59.779 7.968-92.462 8.106h-0.125c-0.134 0-0.293 0-0.453 0-110.764 0-213.91-32.617-300.356-88.771l2.142 1.304c-84.304 54.849-187.45 87.467-298.214 87.467-0.159 0-0.318 0-0.477 0h0.024c-32.807-0.139-64.828-3.082-95.959-8.602l3.372 0.495c-20.513-3.345-35.979-20.936-35.979-42.139 0-2.446 0.206-4.845 0.601-7.179l-0.035 0.251c3.974-19.781 21.207-34.472 41.872-34.472 2.847 0 5.628 0.279 8.319 0.81l-0.271-0.045c23.855 4.338 51.309 6.818 79.342 6.818 102.435 0 197.135-33.118 273.978-89.23l-1.319 0.919c6.875-4.946 15.465-7.91 24.747-7.91s17.871 2.964 24.874 7.997l-0.127-0.087c75.523 55.194 170.223 88.311 272.658 88.311 28.033 0 55.487-2.48 82.155-7.234l-2.813 0.416c2.42-0.487 5.201-0.766 8.048-0.766 20.665 0 37.899 14.691 41.827 34.199l0.046 0.273c0.36 2.083 0.566 4.481 0.566 6.927 0 21.203-15.466 38.794-35.733 42.106l-0.246 0.033z" />
<glyph unicode="&#xe944;" glyph-name="border-top" d="M341.333 170.667c-23.564 0-42.667-19.103-42.667-42.667s19.103-42.667 42.667-42.667c23.564 0 42.667 19.103 42.667 42.667v0c0 23.564-19.103 42.667-42.667 42.667v0zM341.333 512c-23.564 0-42.667-19.103-42.667-42.667s19.103-42.667 42.667-42.667c23.564 0 42.667 19.103 42.667 42.667v0c0 23.564-19.103 42.667-42.667 42.667v0zM512 170.667c-23.564 0-42.667-19.103-42.667-42.667s19.103-42.667 42.667-42.667c23.564 0 42.667 19.103 42.667 42.667v0c0 23.564-19.103 42.667-42.667 42.667v0zM170.667 682.667c-23.564 0-42.667-19.103-42.667-42.667s19.103-42.667 42.667-42.667c23.564 0 42.667 19.103 42.667 42.667v0c0 23.564-19.103 42.667-42.667 42.667v0zM170.667 170.667c-23.564 0-42.667-19.103-42.667-42.667s19.103-42.667 42.667-42.667c23.564 0 42.667 19.103 42.667 42.667v0c0 23.564-19.103 42.667-42.667 42.667v0zM170.667 768h682.667c23.564 0 42.667 19.103 42.667 42.667s-19.103 42.667-42.667 42.667v0h-682.667c-23.564 0-42.667-19.103-42.667-42.667s19.103-42.667 42.667-42.667v0zM170.667 341.333c-23.564 0-42.667-19.103-42.667-42.667s19.103-42.667 42.667-42.667c23.564 0 42.667 19.103 42.667 42.667v0c0 23.564-19.103 42.667-42.667 42.667v0zM170.667 512c-23.564 0-42.667-19.103-42.667-42.667s19.103-42.667 42.667-42.667c23.564 0 42.667 19.103 42.667 42.667v0c0 23.564-19.103 42.667-42.667 42.667v0zM512 682.667c-23.564 0-42.667-19.103-42.667-42.667s19.103-42.667 42.667-42.667c23.564 0 42.667 19.103 42.667 42.667v0c0 23.564-19.103 42.667-42.667 42.667v0zM853.333 341.333c-23.564 0-42.667-19.103-42.667-42.667s19.103-42.667 42.667-42.667c23.564 0 42.667 19.103 42.667 42.667v0c0 23.564-19.103 42.667-42.667 42.667v0zM853.333 170.667c-23.564 0-42.667-19.103-42.667-42.667s19.103-42.667 42.667-42.667c23.564 0 42.667 19.103 42.667 42.667v0c0 23.564-19.103 42.667-42.667 42.667v0zM512 341.333c-23.564 0-42.667-19.103-42.667-42.667s19.103-42.667 42.667-42.667c23.564 0 42.667 19.103 42.667 42.667v0c0 23.564-19.103 42.667-42.667 42.667v0zM853.333 682.667c-23.564 0-42.667-19.103-42.667-42.667s19.103-42.667 42.667-42.667c23.564 0 42.667 19.103 42.667 42.667v0c0 23.564-19.103 42.667-42.667 42.667v0zM853.333 512c-23.564 0-42.667-19.103-42.667-42.667s19.103-42.667 42.667-42.667c23.564 0 42.667 19.103 42.667 42.667v0c0 23.564-19.103 42.667-42.667 42.667v0zM512 512c-23.564 0-42.667-19.103-42.667-42.667s19.103-42.667 42.667-42.667c23.564 0 42.667 19.103 42.667 42.667v0c0 23.564-19.103 42.667-42.667 42.667v0zM682.667 512c-23.564 0-42.667-19.103-42.667-42.667s19.103-42.667 42.667-42.667c23.564 0 42.667 19.103 42.667 42.667v0c0 23.564-19.103 42.667-42.667 42.667v0zM682.667 170.667c-23.564 0-42.667-19.103-42.667-42.667s19.103-42.667 42.667-42.667c23.564 0 42.667 19.103 42.667 42.667v0c0 23.564-19.103 42.667-42.667 42.667v0z" />
</font>
</defs>
</svg>
